<?xml version="1.0" standalone="no"?>
<!DOCTYPE svg PUBLIC "-//W3C//DTD SVG 1.1//EN" "http://www.w3.org/Graphics/SVG/1.1/DTD/svg11.dtd" >
<svg xmlns="http://www.w3.org/2000/svg" xmlns:xlink="http://www.w3.org/1999/xlink" version="1.1">
<metadata>
Created by FontForge 20170731 at Tue Nov 16 23:20:30 2010
 By Aleksey,,,
Copyright (c) 2010 by Typemade. All rights reserved.
</metadata>
<defs>
<font id="JosefinSans-Bold" horiz-adv-x="469" >
  <font-face 
    font-family="Josefin Sans"
    font-weight="700"
    font-stretch="normal"
    units-per-em="1000"
    panose-1="0 0 0 0 0 0 0 0 0 0"
    ascent="750"
    descent="-250"
    x-height="375"
    cap-height="700"
    bbox="-57 -250 1047 932"
    underline-thickness="50"
    underline-position="-150"
    unicode-range="U+0020-203A"
  />
<missing-glyph horiz-adv-x="300" 
 />
    <glyph glyph-name=".notdef" horiz-adv-x="300" 
 />
    <glyph glyph-name=".null" horiz-adv-x="0" 
 />
    <glyph glyph-name="nonmarkingreturn" horiz-adv-x="300" 
 />
    <glyph glyph-name="space" unicode=" " horiz-adv-x="300" 
 />
    <glyph glyph-name="space" unicode="&#xa0;" horiz-adv-x="300" 
 />
    <glyph glyph-name="exclam" unicode="!" horiz-adv-x="201" 
d="M100 0q-20 0 -36 15t-16 38t16 37.5t36 14.5q19 0 35 -14.5t16 -37.5t-16 -38t-35 -15v0zM58 750h83v-584h-83v584z" />
    <glyph glyph-name="quotedbl" unicode="&#x22;" horiz-adv-x="335" 
d="M196 472v248h83q-1 -63 -2 -124t-2 -124h-79zM63 472v248h83q-1 -63 -2 -124t-2 -124h-79z" />
    <glyph glyph-name="numbersign" unicode="#" horiz-adv-x="571" 
d="M223 371l-12 -102h100l12 102h-100zM279 0q5 48 11 94t11 94h-100q-5 -48 -11 -94t-11 -94h-84q5 48 11 94t11 94h-92q2 20 5 40.5t5 40.5h92l12 102h-91q2 20 4 40.5t4 40.5h92q6 48 12 95.5t12 95.5h84q-6 -48 -12 -95.5t-12 -95.5h100q6 48 12 95.5t12 95.5h84
q-6 -48 -12 -95.5t-12 -95.5h102q-2 -20 -4 -40.5t-4 -40.5h-103l-12 -102h102q-2 -20 -5 -40.5t-5 -40.5h-102q-5 -48 -11 -94t-11 -94h-84z" />
    <glyph glyph-name="dollar" unicode="$" horiz-adv-x="567" 
d="M157 514q0 -33 14 -52t37 -30q5 -3 11.5 -5.5t12.5 -4.5v198q-38 -11 -56.5 -40t-18.5 -66zM401 188q0 46 -25.5 71.5t-59.5 41.5v-223q36 11 60.5 38t24.5 72zM449 631q-12 -15 -23.5 -30t-23.5 -30q-13 11 -35 25.5t-51 22.5v-228q30 -12 60 -29.5t54 -42t39 -57
t15 -75.5q0 -39 -13 -72t-35.5 -58t-53.5 -40.5t-66 -21.5v-63h-84v64q-32 5 -60.5 16.5t-52.5 26.5t-43 32.5t-30 34.5l52 52q23 -24 56 -49.5t78 -34.5v258q-5 2 -12 5t-15 7q-19 9 -41.5 21.5t-42 33t-33 49t-14.5 69.5q-1 30 7 60t26.5 56t49 44t75.5 24v63h84v-64
q29 -6 62 -21.5t71 -47.5z" />
    <glyph glyph-name="percent" unicode="%" horiz-adv-x="726" 
d="M478 111q0 -20 12 -33t32 -13t32 13t12 33t-12 32.5t-32 12.5t-32 -12.5t-12 -32.5zM522 -16q-26 0 -49.5 10t-41 27t-27.5 40t-10 50q0 26 10 49t27.5 40t41 27t49.5 10t49 -10t40.5 -27t28 -40t10.5 -49q0 -27 -10.5 -50t-28 -40t-40.5 -27t-49 -10zM174 389
q0 -20 12 -33t32 -13t32 13t12 33t-12 32.5t-32 12.5t-32 -12.5t-12 -32.5zM218 262q-26 0 -49.5 10t-41 27t-27.5 40t-10 50q0 26 10 49t27.5 40t41 27t49.5 10t49 -10t40.5 -27t28 -40t10.5 -49q0 -27 -10.5 -50t-28 -40t-40.5 -27t-49 -10zM174 0q75 126 149 250t149 250
h91q-75 -126 -149 -250t-149 -250h-91z" />
    <glyph glyph-name="ampersand" unicode="&#x26;" horiz-adv-x="700" 
d="M188 188q0 -49 32.5 -82.5t84.5 -33.5q38 0 66.5 19t41.5 50l-99 162q-56 0 -91 -30.5t-35 -84.5zM506 194v-7q0 -20 -5 -42q19 -30 37.5 -60.5t37.5 -60.5q-17 -11 -32.5 -21.5t-32.5 -21.5q-13 20 -25 41t-25 41q-28 -33 -68 -52.5t-88 -19.5q-42 0 -78.5 15.5
t-63.5 42.5t-42.5 62.5t-15.5 76.5q0 36 12 68t34 57.5t51 43t64 23.5q-17 29 -35 58t-35 58q-18 30 -25.5 62t-2.5 62.5t23.5 58t51.5 47.5q28 17 57.5 20.5t57.5 -2t52.5 -16.5t43.5 -23q-8 -17 -16.5 -32.5t-16.5 -32.5q-10 6 -25.5 13.5t-32.5 11.5t-34 4t-30 -9
q-41 -26 -45.5 -66t19.5 -79q38 -61 74.5 -121t74.5 -121q1 17 3 29.5t5 23.5q7 22 20 32.5t29.5 14t35.5 3t39 -0.5h47v-81h-44q-15 0 -25 -3.5t-16 -14t-8 -30.5t-2 -52z" />
    <glyph glyph-name="quotesingle" unicode="'" horiz-adv-x="163" 
d="M42 472v248h84q-1 -63 -2 -124t-2 -124h-80z" />
    <glyph glyph-name="parenleft" unicode="(" horiz-adv-x="424" 
d="M115 291q0 75 14 143t37 126t52.5 105.5t61.5 80.5q18 -6 36.5 -11.5t36.5 -11.5q-29 -33 -56.5 -78t-49.5 -100t-35 -119t-13 -135t13 -135t35 -119t49.5 -100t56.5 -78q-18 -6 -36.5 -11.5t-36.5 -11.5q-32 33 -61.5 80.5t-52.5 105.5t-37 126t-14 143z" />
    <glyph glyph-name="parenright" unicode=")" horiz-adv-x="400" 
d="M312 288q0 -75 -14 -143t-37 -126t-53 -105.5t-61 -80.5q-18 5 -36.5 10.5t-36.5 10.5q29 33 56.5 78t49.5 100t35 119t13 135t-13 135t-35 119t-49.5 100t-56.5 78q18 6 36.5 12.5t36.5 12.5q31 -33 61 -80.5t53 -105.5t37 -126t14 -143z" />
    <glyph glyph-name="asterisk" unicode="*" horiz-adv-x="335" 
d="M250 575l63 -36q-11 -18 -21 -36.5t-21 -36.5q-16 9 -31 18.5t-31 18.5q0 -17 -0.5 -34.5t-0.5 -34.5h-80v70q-15 -9 -30.5 -17.5t-30.5 -17.5q-11 18 -21 36.5t-21 36.5q16 8 31 17t31 17q-15 9 -30.5 18.5t-30.5 18.5l39 69q16 -9 31.5 -18.5t31.5 -18.5v75h84
q0 -19 -0.5 -37.5t-0.5 -37.5l32 18l32 18q10 -17 20 -34.5t20 -34.5q-17 -9 -32.5 -18.5t-32.5 -18.5z" />
    <glyph glyph-name="plus" unicode="+" horiz-adv-x="543" 
d="M224 51v139h-138v81h138v140h84v-140h138v-81h-138v-139h-84z" />
    <glyph glyph-name="comma" unicode="," horiz-adv-x="200" 
d="M163 86q-22 -52 -43 -103t-43 -103h-75q20 52 38.5 103t38.5 103h84z" />
    <glyph glyph-name="hyphen" unicode="-" horiz-adv-x="300" 
d="M53 147v81h184v-81h-184z" />
    <glyph glyph-name="period" unicode="." horiz-adv-x="163" 
d="M33 52q0 23 16 38t36 15q19 0 35 -15t16 -38t-16 -37.5t-35 -14.5q-20 0 -36 14.5t-16 37.5z" />
    <glyph glyph-name="slash" unicode="/" horiz-adv-x="380" 
d="M17 -19q70 190 139 377.5t139 377.5h84q-70 -190 -139 -377.5t-139 -377.5h-84z" />
    <glyph glyph-name="zero" unicode="0" horiz-adv-x="616" 
d="M37 327q0 76 21.5 137.5t58 104.5t85.5 66t105 23t105 -24t85 -67.5t56 -105.5t20 -138t-23.5 -137t-61.5 -104.5t-86 -66.5t-99 -23t-99 24t-85.5 68t-59.5 105.5t-22 137.5zM121 326q0 -53 14 -99t39 -80t58 -54t71 -20q37 0 71 19t59.5 53t40.5 80t15 99q0 36 -9 80
t-30.5 82.5t-56.5 64.5t-86 26t-86.5 -25.5t-57.5 -63.5t-32 -82t-10 -80z" />
    <glyph glyph-name="one" unicode="1" horiz-adv-x="273" 
d="M34 569v81h152v-650h-84v569h-68z" />
    <glyph glyph-name="two" unicode="2" horiz-adv-x="519" 
d="M253 81h243v-81h-443q62 62 120 120.5t103 113t72 106t27 98.5q0 37 -12 63t-30.5 43t-40 25t-39.5 8q-38 0 -62 -13t-38 -32t-19.5 -40t-5.5 -37q0 -33 10 -58.5t29 -45.5q-13 -13 -25 -25.5t-25 -25.5q-17 11 -30.5 29.5t-23 40t-14.5 44t-5 41.5q0 40 13.5 77t40 65
t65.5 44.5t90 16.5q46 0 84 -17t65 -45.5t42 -66t15 -79.5q0 -50 -17.5 -96.5t-46 -92.5t-65.5 -90.5t-77 -89.5z" />
    <glyph glyph-name="three" unicode="3" horiz-adv-x="515" 
d="M154 326q35 61 69.5 121t69.5 121h-190v82h329q-36 -60 -71.5 -119t-71.5 -119q33 -12 60 -31.5t47 -45.5t31 -58t11 -68q0 -45 -17.5 -84.5t-47.5 -69t-69.5 -46.5t-84.5 -17q-48 0 -89 19.5t-71 51.5q15 14 30.5 28.5t30.5 28.5q18 -22 43.5 -34.5t55.5 -12.5
q28 0 52.5 11t43 29.5t29.5 43t11 52.5t-11 52.5t-29.5 42.5t-43 28.5t-52.5 10.5q-36 0 -65 -17z" />
    <glyph glyph-name="four" unicode="4" horiz-adv-x="529" 
d="M319 413q-29 -38 -57 -74.5t-57 -74.5h114v149zM37 183q92 119 183 237.5t183 237.5v-394h97v-81h-97v-183h-84v183h-282z" />
    <glyph glyph-name="five" unicode="5" horiz-adv-x="543" 
d="M143 292v358h287v-81h-203v-147q6 1 12.5 1.5t13.5 0.5q45 0 84.5 -16.5t69.5 -46t47.5 -68.5t17.5 -84t-17.5 -84.5t-47.5 -69t-69.5 -46.5t-84.5 -17q-44 0 -82.5 16t-67.5 45q15 14 30.5 28t30.5 28q17 -17 40 -26.5t49 -9.5q28 0 52.5 11t43 29.5t29.5 43t11 52.5
t-11 52.5t-29.5 42.5t-43 28.5t-52.5 10.5q-35 0 -64 -11.5t-46 -39.5z" />
    <glyph glyph-name="six" unicode="6" horiz-adv-x="520" 
d="M134 209q0 -28 10 -52.5t28 -43t42 -29.5t51 -11q28 0 52.5 11t43 29.5t29.5 43t11 52.5t-11 52.5t-29.5 42.5t-43 28.5t-52.5 10.5q-27 0 -51 -10.5t-42 -28.5t-28 -42.5t-10 -52.5zM48 197q0 72 30.5 134.5t78.5 116.5t107 101t115 88l26 -32l26 -32
q-65 -43 -110 -80.5t-77 -69.5q5 0 10.5 0.5t10.5 0.5q45 0 84.5 -16.5t69.5 -46t47.5 -68.5t17.5 -84t-17.5 -84.5t-47.5 -69t-69.5 -46.5t-84.5 -17q-43 0 -81.5 16t-68 43.5t-47.5 65t-20 80.5z" />
    <glyph glyph-name="seven" unicode="7" 
d="M14 568v82h413q-73 -164 -146 -325t-146 -325h-95q65 143 128.5 284t128.5 284h-283z" />
    <glyph glyph-name="eight" unicode="8" horiz-adv-x="510" 
d="M180 498q0 -32 22 -53t53 -21q32 0 53.5 21t21.5 53t-21.5 55.5t-53.5 23.5q-31 0 -53 -23.5t-22 -55.5zM122 209q0 -28 10 -52.5t28 -43t42 -29.5t51 -11q28 0 52.5 11t43 29.5t29.5 43t11 52.5q0 27 -10.5 51t-28 42t-41.5 29t-51 12q-29 0 -54 -10.5t-43 -28.5
t-28.5 -42.5t-10.5 -52.5zM36 209q0 58 28 105.5t74 76.5q-20 20 -31.5 47.5t-11.5 59.5q0 33 12.5 62t34 51t50 34.5t61.5 12.5t62 -12.5t51 -34.5t34.5 -51t12.5 -62q0 -32 -12 -59.5t-32 -47.5q46 -29 74.5 -76.5t28.5 -105.5q0 -45 -17.5 -84.5t-47.5 -69t-69.5 -46.5
t-84.5 -17t-84.5 17t-69 46.5t-46.5 69t-17 84.5z" />
    <glyph glyph-name="nine" unicode="9" horiz-adv-x="525" 
d="M376 419q0 28 -10 52.5t-28 43t-42 29.5t-51 11q-28 0 -52.5 -11t-43 -29.5t-29.5 -43t-11 -52.5t11 -52.5t29.5 -42.5t43 -28.5t52.5 -10.5q27 0 51 10.5t42 28.5t28 42.5t10 52.5zM462 419q0 -68 -31.5 -129t-80.5 -114.5t-107 -99.5t-112 -85l-26 32l-26 32
q65 43 110 80.5t77 69.5q-5 -1 -10.5 -1h-10.5q-45 0 -84.5 16.5t-69.5 46t-47.5 68.5t-17.5 84t17.5 84.5t47.5 69t69.5 46.5t84.5 17t84.5 -17.5t69 -47t46.5 -69t17 -83.5z" />
    <glyph glyph-name="colon" unicode=":" horiz-adv-x="175" 
d="M33 302q0 23 16 38t36 15q19 0 35 -15t16 -38t-16 -37.5t-35 -14.5q-20 0 -36 14.5t-16 37.5zM33 52q0 23 16 38t36 15q19 0 35 -15t16 -38t-16 -37.5t-35 -14.5q-20 0 -36 14.5t-16 37.5z" />
    <glyph glyph-name="semicolon" unicode=";" horiz-adv-x="201" 
d="M64 302q0 23 16 38t36 15q19 0 35 -15t16 -38t-16 -37.5t-35 -14.5q-20 0 -36 14.5t-16 37.5zM149 86q-22 -52 -43 -103t-43 -103h-75q20 52 38.5 103t38.5 103h84z" />
    <glyph glyph-name="less" unicode="&#x3c;" horiz-adv-x="680" 
d="M553 99v-113q-110 63 -218.5 126t-218.5 126q110 63 218.5 126t218.5 126v-113q-60 -35 -120.5 -69.5t-120.5 -69.5q60 -35 120.5 -69.5t120.5 -69.5z" />
    <glyph glyph-name="equal" unicode="=" horiz-adv-x="708" 
d="M606 193v-81h-506v81h506zM606 387v-81h-506v81h506z" />
    <glyph glyph-name="greater" unicode="&#x3e;" horiz-adv-x="650" 
d="M116 -14v113q60 35 120.5 69.5t120.5 69.5q-60 35 -120.5 69.5t-120.5 69.5v113q110 -63 218.5 -126t218.5 -126q-110 -63 -218.5 -126t-218.5 -126z" />
    <glyph glyph-name="question" unicode="?" horiz-adv-x="452" 
d="M114 552q-18 7 -36.5 13.5t-36.5 13.5q7 22 20 48.5t36 49.5t58 39t86 16q41 0 77 -15.5t62.5 -42t41.5 -62t15 -75.5q0 -56 -26.5 -97.5t-71.5 -75.5q-14 -10 -30 -20.5t-30 -24t-23 -32t-9 -45.5v-78h-84v97q0 32 10 52t27 35.5t38 29t44 31.5q36 27 53 59t17 69
q0 49 -30.5 81.5t-80.5 32.5q-56 0 -84 -25t-43 -74zM204 0q-20 0 -36 14.5t-16 37.5t16 38t36 15q19 0 35 -15t16 -38t-16 -37.5t-35 -14.5z" />
    <glyph glyph-name="at" unicode="@" horiz-adv-x="990" 
d="M368 188q0 -49 32.5 -82.5t84.5 -33.5t84.5 33.5t32.5 82.5q0 50 -32.5 82.5t-84.5 32.5t-84.5 -32.5t-32.5 -82.5zM910 188q-4 -53 -24.5 -88.5t-48.5 -58t-60 -32t-59 -9.5h-106v20v20q-1 -3 -10 -11t-25.5 -16t-39.5 -15t-52 -7q-42 0 -79 15.5t-64 42.5t-42.5 62.5
t-15.5 75.5q0 39 15.5 74.5t42.5 62.5t64 42.5t79 15.5q26 0 48.5 -7t39.5 -16.5t27 -18.5t12 -12q0 11 2 23t2 24h69v-294h33q20 0 39 5.5t34 18t24 33t11 50.5q0 71 -26.5 133t-72.5 108.5t-107 73t-131 26.5q-71 0 -132.5 -26.5t-108 -73t-73 -108.5t-26.5 -133
t26.5 -132.5t73 -107.5t108 -72.5t132.5 -26.5q59 0 111.5 17.5t97.5 48.5q13 -15 25 -29.5t25 -29.5q-25 -22 -56 -38.5t-65.5 -27.5t-69.5 -16.5t-68 -5.5q-88 0 -165 33t-134.5 90t-91 134t-33.5 164t33.5 164t91 134t134.5 90t165 33q87 0 164 -33t134 -90t90 -134
t33 -165z" />
    <glyph glyph-name="A" unicode="A" horiz-adv-x="740" 
d="M380 515l-9 33q-14 -50 -35 -97t-41 -95h152q-17 40 -33.5 79.5t-33.5 79.5zM681 0h-83q-29 69 -58.5 138.5t-58.5 138.5h-220q-29 -69 -58.5 -138.5t-58.5 -138.5h-83q78 184 155 366t155 366q78 -184 155 -366t155 -366z" />
    <glyph glyph-name="B" unicode="B" horiz-adv-x="535" 
d="M141 621v-229h108q59 0 93.5 33t34.5 87q0 59 -36 84t-94 25h-106zM141 313v-234h111q31 0 58 7t47.5 21.5t32.5 35.5t12 50q0 31 -14 54t-36.5 37.5t-52.5 21.5t-61 7h-97zM58 0v700h183q49 0 89.5 -10t69 -31t44.5 -54.5t16 -79.5q0 -62 -29.5 -109t-89.5 -64
q28 -6 54.5 -20t46 -36t31.5 -51t12 -65q0 -45 -19 -78.5t-50.5 -56t-72.5 -34t-84 -11.5h-201z" />
    <glyph glyph-name="C" unicode="C" horiz-adv-x="670" 
d="M556 108l45 -66q-40 -23 -85.5 -36.5t-96.5 -13.5q-74 0 -139 28t-113.5 76.5t-76.5 113.5t-28 139t28 139.5t76.5 114t113.5 77t139 28.5q51 0 96.5 -13t86.5 -37q-11 -17 -23 -33.5t-23 -33.5q-31 18 -65 28t-72 10q-57 0 -106.5 -22t-87 -60.5t-59 -89.5t-21.5 -108
t21.5 -108t59 -88.5t87 -59.5t106.5 -22q74 0 137 37z" />
    <glyph glyph-name="D" unicode="D" horiz-adv-x="652" 
d="M60 700h163q72 0 136 -24.5t112 -70.5t76 -110.5t28 -145.5q0 -59 -20.5 -121t-66.5 -112.5t-119.5 -83t-179.5 -32.5h-129v700zM143 621v-541h70q59 0 110 19t88.5 54.5t59 85t21.5 111.5t-21.5 112t-59 85.5t-88.5 54.5t-110 19h-70z" />
    <glyph glyph-name="E" unicode="E" horiz-adv-x="601" 
d="M69 0v700h431v-79h-348v-229h309v-79h-309v-234h362v-79h-445z" />
    <glyph glyph-name="F" unicode="F" horiz-adv-x="587" 
d="M69 0v700h431v-79h-348v-229h309v-79h-309v-313h-83z" />
    <glyph glyph-name="G" unicode="G" horiz-adv-x="692" 
d="M415 221v79h138q29 0 38.5 -14.5t9.5 -45.5v-198q-40 -23 -85.5 -36.5t-96.5 -13.5q-74 0 -139 28t-113.5 76.5t-76.5 113.5t-28 139t28 139.5t76.5 114t113.5 77t139 28.5q51 0 96.5 -13t86.5 -37q-11 -17 -23 -33.5t-23 -33.5q-31 18 -65 28t-72 10q-57 0 -106.5 -22
t-87 -60.5t-59 -89.5t-21.5 -108t21.5 -108t59 -88.5t87 -59.5t106.5 -22q52 0 99 18v102q0 17 -3.5 23.5t-19.5 6.5h-80z" />
    <glyph glyph-name="H" unicode="H" horiz-adv-x="700" 
d="M78 0v700h83v-308h378v308h83v-700h-83v313h-378v-313h-83z" />
    <glyph glyph-name="I" unicode="I" horiz-adv-x="278" 
d="M99 700h83v-700h-83v700z" />
    <glyph glyph-name="J" unicode="J" horiz-adv-x="342" 
d="M17 -144v79q69 4 113.5 44t44.5 114v607h83v-610q0 -56 -18.5 -99t-50.5 -72.5t-76.5 -45.5t-95.5 -17z" />
    <glyph glyph-name="K" unicode="K" horiz-adv-x="600" 
d="M581 0h-99q-72 91 -143 181.5t-143 181.5q-16 -15 -31 -29.5t-31 -29.5v-304h-83v700h83v-274q-1 -8 -1.5 -16t-1.5 -16q5 6 9.5 11.5t9.5 11.5q75 71 148.5 141.5t148.5 141.5h102q-75 -72 -149 -142t-149 -142q83 -105 165 -208t165 -208z" />
    <glyph glyph-name="L" unicode="L" horiz-adv-x="593" 
d="M69 0v700h83v-621h362v-79h-445z" />
    <glyph glyph-name="M" unicode="M" horiz-adv-x="937" 
d="M100 732q92 -119 183 -237.5t183 -237.5q92 119 183 237.5t183 237.5v-732h-83v470q1 8 1.5 16t1.5 16q-66 -98 -140 -190.5t-146 -186.5q-67 88 -134 175t-134 175l-18 27q1 -8 1.5 -16t1.5 -16v-470h-83v732z" />
    <glyph glyph-name="N" unicode="N" horiz-adv-x="813" 
d="M711 700v-732q-129 137 -256 272t-256 272q-5 7 -9.5 13t-9.5 13q1 -8 1.5 -16t1.5 -16v-506h-83v732q129 -140 256 -277.5t256 -277.5q5 -7 9.5 -13t9.5 -13q-1 8 -1.5 16t-1.5 16v517h83z" />
    <glyph glyph-name="O" unicode="O" horiz-adv-x="840" 
d="M62 349q0 73 28 138.5t76.5 114.5t113.5 77.5t139 28.5q73 0 138.5 -28.5t114.5 -77.5t77.5 -114.5t28.5 -138.5q0 -74 -28.5 -139t-77.5 -113.5t-114.5 -76.5t-138.5 -28q-74 0 -139 28t-113.5 76.5t-76.5 113.5t-28 139zM145 349q0 -58 21.5 -108.5t59 -88t87.5 -59.5
t107 -22t107 22t87.5 59.5t59 88t21.5 108.5t-21.5 108.5t-59 88.5t-87.5 60t-107 22t-107 -22t-87.5 -60t-59 -88.5t-21.5 -108.5z" />
    <glyph glyph-name="P" unicode="P" horiz-adv-x="489" 
d="M141 392h87q44 0 72.5 11.5t45.5 28.5t24 38t7 40q0 22 -11.5 42.5t-31 36t-47 24.5t-58.5 9h-88v-230zM58 0v700h165q34 0 75.5 -10.5t77.5 -33.5t60 -59t24 -87q0 -91 -54 -144.5t-156 -53.5h-109v-312h-83z" />
    <glyph glyph-name="Q" unicode="Q" horiz-adv-x="842" 
d="M145 349q0 -57 21.5 -108t59 -88.5t87 -59.5t106.5 -22t107 22t87.5 59.5t59.5 88.5t22 108t-22 108t-59.5 89.5t-87.5 60.5t-107 22t-106.5 -22t-87 -60.5t-59 -89.5t-21.5 -108zM62 349q0 74 28 139.5t76.5 114t113.5 77t139 28.5t139.5 -28.5t114 -77t77 -114
t28.5 -139.5q0 -81 -34 -151t-91 -119h147v-79h-307q-38 -8 -74 -8q-74 0 -139 28t-113.5 76.5t-76.5 113.5t-28 139z" />
    <glyph glyph-name="R" unicode="R" horiz-adv-x="519" 
d="M141 392h87q44 0 72.5 11.5t45.5 28.5t24 38t7 40q0 22 -11.5 42.5t-31 36t-47 24.5t-58.5 9h-88v-230zM58 0v700h165q34 0 75.5 -10.5t77.5 -33.5t60 -59t24 -87q0 -75 -37.5 -125.5t-109.5 -66.5l150 -318h-90l-147 312h-17h-68v-312h-83z" />
    <glyph glyph-name="S" unicode="S" horiz-adv-x="563" 
d="M449 631q-12 -15 -23.5 -30t-23.5 -30q-8 8 -21 17.5t-29.5 17.5t-37 13.5t-43.5 5.5q-58 0 -86 -33t-28 -78q0 -25 9.5 -42t25 -28.5t35 -19.5t40.5 -15q33 -12 71 -28.5t70.5 -42t54 -62.5t21.5 -89q0 -45 -16.5 -81t-45 -61.5t-66.5 -39t-80 -13.5q-38 0 -74 10.5
t-66 27t-53.5 36.5t-36.5 40l52 52q13 -14 31 -29.5t39 -28.5t46 -21t54 -8q26 0 50 7.5t42.5 22t29.5 36.5t11 51q0 40 -19.5 65t-48 41.5t-59.5 26.5t-54 19q-18 7 -43 19t-47.5 32.5t-38.5 51t-17 74.5q-1 33 9 66t33 60t61 44t93 17q40 0 83 -14t96 -59z" />
    <glyph glyph-name="T" unicode="T" horiz-adv-x="553" 
d="M553 700v-79h-234v-621h-83v621h-236v79h553z" />
    <glyph glyph-name="U" unicode="U" horiz-adv-x="652" 
d="M328 -8q-54 0 -100 15t-80 44.5t-53 73.5t-19 101v474h83v-471q0 -38 12.5 -67.5t35 -49.5t53.5 -30.5t68 -10.5t68 10.5t53.5 30.5t35.5 49.5t13 67.5v471h83v-474q0 -57 -19.5 -101t-53.5 -73.5t-80 -44.5t-100 -15z" />
    <glyph glyph-name="V" unicode="V" horiz-adv-x="722" 
d="M591 700h83q-78 -184 -155 -366t-155 -366q-78 184 -155 366t-155 366h83q55 -130 109 -257.5t109 -257.5l9 -33l9 33q55 130 109 257.5t109 257.5z" />
    <glyph glyph-name="W" unicode="W" horiz-adv-x="1108" 
d="M964 700h83q-78 -184 -155 -366t-155 -366l-177 417q-2 9 -5 17.5t-5 17.5q-14 -56 -36 -113.5t-48 -114.5t-52.5 -113.5t-49.5 -110.5q-78 184 -155 366t-155 366h83q55 -130 109 -257.5t109 -257.5l9 -33q12 45 29.5 89.5t37 89t40 88.5t38.5 87q-20 49 -41 97t-41 97
h83q55 -130 109 -257.5t109 -257.5l9 -33l9 33q55 130 109 257.5t109 257.5z" />
    <glyph glyph-name="X" unicode="X" horiz-adv-x="700" 
d="M326 357q-56 86 -111.5 171.5t-111.5 171.5h102q41 -63 81.5 -125.5t81.5 -125.5q3 -7 6.5 -13.5t6.5 -13.5q3 7 6.5 13.5t6.5 13.5q41 63 81.5 125.5t81.5 125.5h102q-57 -88 -113.5 -174.5t-113.5 -174.5q57 -88 114.5 -175.5t114.5 -175.5h-103l-168 258q-4 7 -7 14
t-7 14q-3 -7 -6.5 -14t-6.5 -14q-42 -65 -83.5 -129t-83.5 -129h-103q59 90 116.5 178.5t116.5 178.5z" />
    <glyph glyph-name="Y" unicode="Y" horiz-adv-x="638" 
d="M369 269v-269h-102v270q-64 108 -127.5 215t-127.5 215h102q48 -81 96 -161.5t96 -161.5q3 -8 5.5 -15.5t5.5 -15.5h1q3 8 6 15.5t6 15.5q48 81 95.5 161.5t95.5 161.5h102q-64 -109 -127 -215.5t-127 -215.5z" />
    <glyph glyph-name="Z" unicode="Z" horiz-adv-x="700" 
d="M210 700h401v-79q-108 -136 -214 -270.5t-214 -270.5h457v-80h-559v80q108 136 214 270.5t214 270.5h-338q-31 0 -52.5 18t-21.5 47v49h83v-12q0 -16 6.5 -19.5t23.5 -3.5z" />
    <glyph glyph-name="bracketleft" unicode="[" horiz-adv-x="338" 
d="M83 -149v895h192v-81h-109v-733h109v-81h-192z" />
    <glyph glyph-name="backslash" unicode="\" horiz-adv-x="385" 
d="M94 736q70 -190 139 -377.5t139 -377.5h-94q-70 190 -139 377.5t-139 377.5h94z" />
    <glyph glyph-name="bracketright" unicode="]" horiz-adv-x="342" 
d="M251 746v-895h-192v81h109v733h-109v81h192z" />
    <glyph glyph-name="asciicircum" unicode="^" horiz-adv-x="470" 
d="M232 660q30 -45 60 -90.5t60 -90.5h-59q-15 18 -30.5 36t-30.5 36q-15 -18 -30.5 -36t-30.5 -36h-59q30 45 60 90.5t60 90.5z" />
    <glyph glyph-name="underscore" unicode="_" horiz-adv-x="600" 
d="M500 0h-400v81h400v-81z" />
    <glyph glyph-name="grave" unicode="`" horiz-adv-x="200" 
d="M33 612q23 -33 45 -66.5t45 -66.5h-59q-29 33 -57.5 66.5t-57.5 66.5h84z" />
    <glyph glyph-name="a" unicode="a" horiz-adv-x="510" 
d="M133 188q0 -49 32.5 -82.5t84.5 -33.5t84.5 33.5t32.5 82.5q0 50 -32.5 82.5t-84.5 32.5t-84.5 -32.5t-32.5 -82.5zM49 187q0 39 15.5 75t42.5 63t64 43t79 16q27 0 50 -8t40 -17.5t27 -18.5t10 -12q0 11 2 23t2 24h69v-375h-73v32v9q0 -3 -9 -11t-25 -16.5t-39.5 -15.5
t-53.5 -7q-42 0 -79 15.5t-64 42.5t-42.5 62.5t-15.5 75.5z" />
    <glyph glyph-name="b" unicode="b" horiz-adv-x="533" 
d="M399 188q0 50 -32.5 82.5t-84.5 32.5t-84.5 -32.5t-32.5 -82.5q0 -49 32.5 -82.5t84.5 -33.5t84.5 33.5t32.5 82.5zM483 188q0 -40 -15.5 -76t-42.5 -63t-64 -42.5t-79 -15.5q-30 0 -53.5 7t-39.5 15.5t-25 16.5t-9 11v-9v-32h-73v750h83v-388q-2 -8 -5 -16t-5 -16
q0 3 10 11.5t27 18t40 17t50 7.5q42 0 79 -15.5t64 -42.5t42.5 -62.5t15.5 -75.5z" />
    <glyph glyph-name="c" unicode="c" horiz-adv-x="395" 
d="M311 97q13 -16 25 -31.5t25 -31.5q-26 -20 -57.5 -31.5t-67.5 -11.5q-42 0 -78.5 15.5t-63.5 42.5t-42.5 62.5t-15.5 76.5q0 40 15.5 76t42.5 62.5t63.5 42t78.5 15.5q37 0 69 -11.5t58 -31.5q-13 -16 -26 -31t-26 -31q-32 24 -75 24q-52 0 -84.5 -32.5t-32.5 -82.5
q0 -49 32.5 -82.5t84.5 -33.5q44 0 75 25z" />
    <glyph glyph-name="d" unicode="d" horiz-adv-x="528" 
d="M133 188q0 -49 32.5 -82.5t84.5 -33.5t84.5 33.5t32.5 82.5q0 50 -32.5 82.5t-84.5 32.5t-84.5 -32.5t-32.5 -82.5zM49 188q0 40 15.5 75.5t42.5 62.5t64 42.5t79 15.5q27 0 50 -7.5t40 -17t27 -18t10 -11.5q-2 8 -5 16t-5 16v388h83v-750h-73v32v9q0 -3 -9 -11
t-25 -16.5t-39.5 -15.5t-53.5 -7q-42 0 -79 15.5t-64 42.5t-42.5 63t-15.5 76z" />
    <glyph glyph-name="e" unicode="e" horiz-adv-x="451" 
d="M236 303q-40 0 -69 -20t-41 -52q-5 -15 -7 -35q47 17 93.5 34.5t93.5 34.5q-14 17 -31.5 27.5t-38.5 10.5zM412 218q-68 -25 -135.5 -50t-135.5 -50q15 -21 39.5 -33.5t55.5 -12.5q46 0 76 32l51 -60q-25 -25 -57 -39t-70 -14q-42 0 -78.5 15.5t-63.5 42.5t-42.5 62.5
t-15.5 76.5q0 40 15.5 76t42.5 62.5t63.5 42t78.5 15.5q31 0 59.5 -12.5t51 -34.5t39.5 -52.5t26 -66.5z" />
    <glyph glyph-name="f" unicode="f" horiz-adv-x="328" 
d="M22 303v81h64v133q0 56 18.5 99t50.5 72.5t76.5 45t95.5 17.5v-79q-69 -4 -113.5 -44t-44.5 -114v-130h117v-81h-117v-303h-83v303h-64z" />
    <glyph glyph-name="g" unicode="g" horiz-adv-x="518" 
d="M133 188q0 -49 32.5 -82.5t84.5 -33.5t84.5 33.5t32.5 82.5q0 50 -32.5 82.5t-84.5 32.5t-84.5 -32.5t-32.5 -82.5zM381 375h69v-391v-44q0 -40 -15.5 -74.5t-42.5 -60t-63 -40.5t-78 -15q-45 0 -87 19.5t-72 40.5q14 17 27.5 34t27.5 34q20 -15 46.5 -28.5t55.5 -13.5
q26 0 47.5 9t37.5 24.5t24.5 37t8.5 46.5v67q2 5 4.5 9.5t4.5 9.5q-3 -4 -13 -12t-26 -15.5t-38 -13.5t-49 -6q-42 0 -79 15.5t-64 42t-42.5 62t-15.5 75.5q0 39 15.5 75t42.5 63t64 43t79 16q27 0 50 -8t40 -17.5t27 -18.5t10 -12q0 11 2 23t2 24z" />
    <glyph glyph-name="h" unicode="h" horiz-adv-x="525" 
d="M82 750h83v-426l-3 -45q22 49 64 75.5t99 29.5q59 0 93 -31t36 -81v-272h-83v234q-2 27 -19.5 46.5t-55.5 21.5q-26 0 -49.5 -9t-41.5 -25t-29 -38t-11 -48v-182h-83v750z" />
    <glyph glyph-name="i" unicode="i" horiz-adv-x="200" 
d="M49 520q0 23 16 38t36 15q19 0 35 -15t16 -38t-16 -37.5t-35 -14.5q-20 0 -36 14.5t-16 37.5zM141 0h-83v375h83v-375z" />
    <glyph glyph-name="j" unicode="j" horiz-adv-x="225" 
d="M68 520q0 23 16 38t36 15q19 0 35 -15t16 -38t-16 -37.5t-35 -14.5q-20 0 -36 14.5t-16 37.5zM78 -181q-14 16 -28.5 31t-28.5 31q26 20 40 50t14 72v373q21 0 41.5 -0.5t41.5 -0.5v-375q0 -61 -21 -106.5t-59 -74.5z" />
    <glyph glyph-name="k" unicode="k" horiz-adv-x="449" 
d="M327 384l49 -49q-34 -32 -64 -60.5t-64 -60.5q39 -54 78 -107t78 -107h-96q-29 40 -59 80t-59 80q-12 -11 -24.5 -23t-24.5 -23v-114h-83v750h83v-539q48 45 93 86.5t93 86.5z" />
    <glyph glyph-name="l" unicode="l" horiz-adv-x="194" 
d="M141 0h-83v750h83v-750z" />
    <glyph glyph-name="m" unicode="m" horiz-adv-x="796" 
d="M82 375h73v-9q2 -24 3.5 -43.5t3.5 -43.5q21 48 63.5 75.5t99.5 29.5q55 0 88.5 -27.5t39.5 -72.5q22 46 64 72t97 28q59 0 93 -31t36 -81v-272h-83v234q-2 27 -19.5 46.5t-55.5 21.5q-26 0 -49.5 -9t-41.5 -25t-29 -38t-11 -48v-182h-83v234q-2 27 -19.5 46.5
t-55.5 21.5q-26 0 -49.5 -9t-41.5 -25t-29 -38t-11 -48v-182h-83v375z" />
    <glyph glyph-name="n" unicode="n" horiz-adv-x="495" 
d="M82 375h73v-9q2 -24 3.5 -43.5t3.5 -43.5q20 48 64.5 76.5t98.5 28.5q59 0 93 -31t36 -81v-272h-83v234q-2 27 -19.5 46.5t-55.5 21.5q-26 0 -49.5 -9t-41.5 -25t-29 -38t-11 -48v-182h-83v375z" />
    <glyph glyph-name="o" unicode="o" horiz-adv-x="475" 
d="M36 188q0 40 15.5 76t42.5 62.5t63.5 42t78.5 15.5t79 -15.5t64 -42t42.5 -62.5t15.5 -76q0 -41 -15.5 -76.5t-42.5 -62.5t-64 -42.5t-79 -15.5t-78.5 15.5t-63.5 42.5t-42.5 62.5t-15.5 76.5zM119 187q0 -24 9 -45t24.5 -36.5t36.5 -24.5t45 -9t45 9t37 24.5t25 36.5
t9 45t-9 45t-25 37t-37 25t-45 9t-45 -9t-36.5 -25t-24.5 -37t-9 -45z" />
    <glyph glyph-name="p" unicode="p" horiz-adv-x="525" 
d="M384 188q0 50 -32.5 82.5t-84.5 32.5t-84.5 -32.5t-32.5 -82.5q0 -49 32.5 -82.5t84.5 -33.5t84.5 33.5t32.5 82.5zM468 188q0 -40 -15.5 -76t-42.5 -63t-64 -42.5t-79 -15.5q-30 0 -53.5 7t-39.5 15.5t-25 16.5t-9 11q2 -5 5 -11t5 -11v-269h-83v625h69q0 -12 1.5 -23.5
t2.5 -23.5q0 3 10 12t27 18.5t40 17.5t50 8q42 0 79 -15.5t64 -42.5t42.5 -62.5t15.5 -75.5z" />
    <glyph glyph-name="q" unicode="q" horiz-adv-x="512" 
d="M133 188q0 -49 32.5 -82.5t84.5 -33.5t84.5 33.5t32.5 82.5q0 50 -32.5 82.5t-84.5 32.5t-84.5 -32.5t-32.5 -82.5zM49 188q0 40 15.5 75.5t42.5 62.5t64 42.5t79 15.5q27 0 50 -8t40 -17.5t27 -18.5t10 -12q1 12 2.5 23.5t1.5 23.5h69v-625h-83v269q2 5 5 11t5 11
q0 -3 -9 -11t-25 -16.5t-39.5 -15.5t-53.5 -7q-42 0 -79 15.5t-64 42.5t-42.5 63t-15.5 76z" />
    <glyph glyph-name="r" unicode="r" horiz-adv-x="331" 
d="M300 302q-61 0 -98 -34t-37 -86v-182h-83v375h73v-9q2 -24 3.5 -43.5t3.5 -43.5q12 25 30.5 44.5t39 33t40 20.5t34.5 7z" />
    <glyph glyph-name="s" unicode="s" horiz-adv-x="354" 
d="M296 342q-11 -16 -23 -31t-23 -31q-5 5 -19.5 14t-38.5 9q-22 0 -32 -9.5t-8 -25.5q2 -12 15 -19.5t30.5 -14.5t37.5 -16t37 -22.5t28 -34t11 -51.5q0 -14 -5.5 -34t-19.5 -39t-39 -32t-65 -13q-37 0 -71 12.5t-54 34.5q13 15 25 30.5t25 30.5q22 -14 37 -20.5t39 -6.5
q1 0 7.5 0.5t14.5 4t14.5 10.5t7.5 21q1 18 -10 27.5t-28.5 16t-38.5 13t-39.5 18t-30.5 32.5t-12 56q0 31 12 52t30 34.5t39 19.5t38 6q10 0 24.5 -2t29.5 -7t29.5 -13t25.5 -20z" />
    <glyph glyph-name="t" unicode="t" horiz-adv-x="300" 
d="M108 619h83v-235h98v-81h-98v-303h-83v303h-84v81h84v235z" />
    <glyph glyph-name="u" unicode="u" horiz-adv-x="529" 
d="M454 -9h-83v60l3 45q-20 -48 -64.5 -76.5t-98.5 -28.5q-59 0 -93 31t-36 81v272h83v-234q2 -27 19.5 -46.5t55.5 -21.5q26 0 49.5 9t41.5 25t29 38t11 48v182h83v-384z" />
    <glyph glyph-name="v" unicode="v" horiz-adv-x="500" 
d="M270 -23q-54 100 -108 199t-108 199h83q16 -30 35 -62t37.5 -64t34 -64.5t26.5 -64.5q10 32 26 64.5t34.5 64.5l37 64t35.5 62h83q-54 -100 -108 -199t-108 -199z" />
    <glyph glyph-name="w" unicode="w" horiz-adv-x="772" 
d="M349 328q-6 12 -11.5 23.5t-11.5 23.5h83q29 -63 62.5 -126.5t55.5 -128.5q22 65 55.5 128.5t62.5 126.5h83q-51 -100 -100.5 -199t-100.5 -199q-34 68 -68 134.5t-68 134.5q-34 -68 -68 -134.5t-68 -134.5q-51 100 -100.5 199t-100.5 199h83q29 -63 62.5 -126.5
t55.5 -128.5q18 54 44.5 105.5t49.5 102.5z" />
    <glyph glyph-name="x" unicode="x" horiz-adv-x="475" 
d="M169 202q-32 44 -63.5 86.5t-63.5 86.5h102q25 -33 49.5 -66.5t49.5 -66.5q24 33 48.5 66.5t48.5 66.5h102q-37 -51 -73.5 -101t-73.5 -101q32 -44 64.5 -86.5t64.5 -86.5h-106q-25 33 -49 66.5t-49 66.5q-24 -33 -48.5 -66.5t-48.5 -66.5h-102q37 51 74 101t74 101z" />
    <glyph glyph-name="y" unicode="y" horiz-adv-x="500" 
d="M172 -250h-83q32 63 63 125t63 125l-189 375h83q37 -73 79.5 -148.5t68.5 -152.5q13 38 30.5 76.5t37.5 76t40.5 75t38.5 73.5h83q-79 -157 -157.5 -312.5t-157.5 -312.5z" />
    <glyph glyph-name="z" unicode="z" horiz-adv-x="451" 
d="M167 375h217v-81q-32 -28 -59 -54.5t-53.5 -52.5t-54 -52t-58.5 -54h248v-81h-365v81q31 28 58.5 54.5t54 52.5t53.5 53t59 55h-139q-31 0 -52.5 18t-21.5 47v49h83v-12q0 -16 6.5 -19.5t23.5 -3.5z" />
    <glyph glyph-name="braceleft" unicode="{" horiz-adv-x="320" 
d="M30 256v81q24 1 39.5 14.5t24.5 33.5t12 43.5t3 43.5v156q0 46 9.5 70.5t25.5 35t37.5 11.5t45.5 1h63v-81h-44q-15 0 -25 -4t-16 -15.5t-8.5 -31.5t-2.5 -52v-129q0 -31 -6.5 -53.5t-16.5 -38.5t-21 -26.5t-21 -16.5q10 -6 21 -16.5t21 -27t16.5 -38.5t6.5 -52v-129
q0 -32 2.5 -52.5t8.5 -31.5t16 -15t25 -4h44v-81h-63q-23 0 -44.5 1t-38 11.5t-26 34.5t-9.5 71v152q0 20 -3 43.5t-12 43.5t-24.5 33.5t-39.5 14.5z" />
    <glyph glyph-name="bar" unicode="|" horiz-adv-x="271" 
d="M91 -232v932h84v-932h-84z" />
    <glyph glyph-name="braceright" unicode="}" horiz-adv-x="320" 
d="M290 337v-81q-24 -1 -39.5 -14.5t-24 -33.5t-12 -43.5t-3.5 -43.5v-152q0 -47 -9.5 -71t-25.5 -34.5t-37.5 -11.5t-45.5 -1h-63v81h44q15 0 25 4t16 15t8.5 31.5t2.5 52.5v129q0 30 6.5 52.5t16.5 38.5t21.5 26.5t20.5 16.5q-10 6 -21.5 16.5t-21 26.5t-16 38.5
t-6.5 53.5v129q0 32 -2.5 52t-8.5 31.5t-16 15.5t-25 4h-44v81h63q23 0 44.5 -1t38 -11.5t26 -34.5t9.5 -71v-156q0 -20 3.5 -43.5t12 -43.5t24 -33.5t39.5 -14.5z" />
    <glyph glyph-name="asciitilde" unicode="~" horiz-adv-x="489" 
d="M271 481q-15 16 -26.5 21t-25.5 5t-32 -9t-21 -37l-45 3q1 20 10 36.5t22 28t28.5 17.5t30.5 6q23 0 41.5 -9t35.5 -24q15 -16 26.5 -21t25.5 -5q7 0 15.5 2t16.5 7t13.5 14t7.5 23l45 -3q-1 -20 -10 -36.5t-22 -27.5t-28.5 -17t-30.5 -6q-23 0 -41.5 9t-35.5 23z" />
    <glyph glyph-name="exclamdown" unicode="&#xa1;" horiz-adv-x="200" 
d="M100 540q-20 0 -36 -14.999t-16 -37.998q0 -22.998 16 -37.4971t36 -14.499q19 0 35 14.499t16 37.4971q0 22.999 -16 37.998t-35 14.999v0zM58 -209.954h83v583.964h-83v-583.964z" />
    <glyph glyph-name="cent" unicode="&#xa2;" horiz-adv-x="385" 
d="M119 188q0 -34 16 -61t44 -42v204q-28 -14 -44 -40.5t-16 -60.5zM311 97q13 -16 25 -31.5t25 -31.5q-42 -35 -98 -41v-61h-84v68q-31 9 -57.5 27t-45.5 42.5t-29.5 55t-10.5 63.5t10.5 63t29.5 55t45.5 43t57.5 27v62h84v-56q27 -4 53.5 -14t46.5 -27q-13 -16 -26 -31
t-26 -31q-20 14 -48 21v-226q13 3 25.5 9t22.5 14z" />
    <glyph glyph-name="sterling" unicode="&#xa3;" horiz-adv-x="574" 
d="M188 81h172q32 0 52 2.5t31.5 8.5t15.5 16t4 25v44q21 0 42 0.5t42 0.5v-93q0 -18 -4 -34t-17 -27t-36 -17.5t-61 -6.5h-400v81h44q16 0 26 3.5t16 14.5t8 30.5t2 51.5v92h-65v81h65v146q0 69 58 101.5t163 32.5q67 0 107 -30t60 -70q-16 -9 -31.5 -18.5t-31.5 -18.5
q-5 7 -11.5 16.5t-17.5 18.5t-29 15t-46 6q-68 0 -102.5 -14t-34.5 -61v-124h117v-81h-117v-110q0 -29 -2.5 -48.5t-18.5 -33.5z" />
    <glyph glyph-name="currency" unicode="&#xa4;" horiz-adv-x="500" 
d="M171 360q0 -32 22.5 -54.5t54.5 -22.5q16 0 30.5 6t25 16.5t16.5 24.5t6 30q0 32 -23 55t-55 23q-16 0 -30 -6t-24.5 -16.5t-16.5 -25t-6 -30.5zM87 361q0 22 5.5 41.5t15.5 36.5q-6 6 -11.5 12t-11.5 12l59 59l24 -24q19 9 38 15t41 6t42 -5.5t38 -15.5l24 24l59 -59
l-22 -22q22 -38 22 -80q0 -44 -23 -81l24 -24l-59 -59q-7 6 -13 12.5t-13 12.5q-35 -20 -79 -20q-42 0 -78 19l-25 -25l-59 59l24 24q-22 38 -22 82z" />
    <glyph glyph-name="yen" unicode="&#xa5;" horiz-adv-x="638" 
d="M483 181v-81h-114v-100h-102v100h-117v81h117v82h-117v81h73q-53 90 -105.5 178t-105.5 178h102q48 -81 96 -161.5t96 -161.5q3 -8 5.5 -15.5t5.5 -15.5h1q3 8 6 15.5t6 15.5q48 81 95.5 161.5t95.5 161.5h102q-53 -90 -105 -178t-105 -178h70v-81h-114v-82h114z" />
    <glyph glyph-name="brokenbar" unicode="&#xa6;" horiz-adv-x="215" 
d="M153 -233h-84v350h84v-350zM153 350h-84v350h84v-350z" />
    <glyph glyph-name="section" unicode="&#xa7;" horiz-adv-x="500" 
d="M194 360q0 -27 18.5 -45.5t45.5 -18.5q26 0 45 18.5t19 45.5q0 26 -18.5 45t-45.5 19q-26 0 -45 -18.5t-19 -45.5zM217 148q-28 44 -43.5 70t-23.5 39.5t-10 18t-2 6.5q-14 23 -18.5 49.5t0 52.5t17 49t33.5 40q29 23 70 27q-11 17 -20 34t-20 35q-19 33 -25 56.5t-2 41
t15.5 29.5t28.5 22q18 11 37 22t37 22q11 -17 21 -35t21 -35q-10 -5 -19.5 -11t-19.5 -11q-12 -8 -18.5 -15t-7 -17t4.5 -23.5t17 -34.5h1q23 -38 44.5 -74.5t44.5 -74.5q14 -23 18.5 -49t-0.5 -51.5t-18.5 -48.5t-34.5 -39q-29 -23 -70 -29q11 -17 21 -35t21 -35
q19 -33 25.5 -57t2.5 -41.5t-16 -30t-28 -22.5q-18 -11 -36.5 -21.5t-36.5 -21.5q-11 17 -21 35t-21 35q10 6 19.5 11.5t19.5 11.5q12 7 18.5 15t5.5 19.5t-8.5 28t-23.5 42.5z" />
    <glyph glyph-name="dieresis" unicode="&#xa8;" horiz-adv-x="370" 
d="M215 520q0 23 16 38t36 15q19 0 35 -15t16 -38t-16 -37.5t-35 -14.5q-20 0 -36 14.5t-16 37.5zM49 520q0 23 16 38t36 15q19 0 35 -15t16 -38t-16 -37.5t-35 -14.5q-20 0 -36 14.5t-16 37.5z" />
    <glyph glyph-name="copyright" unicode="&#xa9;" horiz-adv-x="793" 
d="M400 148q47 0 88 17t71 47t47 71t17 89q0 49 -17 90t-47 71t-71 47t-88 17t-88 -17t-71 -47t-47 -71t-17 -90q0 -48 17 -89t47 -71t71 -47t88 -17zM400 111q-54 0 -102 20t-83.5 55t-56.5 82.5t-21 103.5q0 57 21 105t56.5 83t83.5 54.5t102 19.5t102 -19.5t83.5 -54.5
t56.5 -83t21 -105q0 -56 -21 -103.5t-56.5 -82.5t-83.5 -55t-102 -20zM468 266l21 -30q-18 -11 -39 -17t-44 -6q-33 0 -62.5 13t-51.5 35t-34.5 51.5t-12.5 62.5q0 34 12.5 63.5t34.5 51.5t51.5 34.5t62.5 12.5q45 0 83 -22q-5 -8 -10.5 -15.5t-10.5 -15.5q-29 18 -62 18
q-26 0 -48 -10t-39 -27.5t-26.5 -40.5t-9.5 -49t9.5 -49t26.5 -40t39 -27t48 -10q34 0 62 17z" />
    <glyph glyph-name="ordfeminine" unicode="&#xaa;" horiz-adv-x="585" 
d="M153.942 441.596q0 -35.3418 23.4453 -59.5039q23.4443 -24.1621 60.9561 -24.1621t60.9561 24.1621t23.4443 59.5039q0 36.0625 -23.4443 59.5029t-60.9561 23.4404t-60.9561 -23.4404q-23.4453 -23.4404 -23.4453 -59.5029zM93.3477 440.874q0 28.1289 11.1807 54.0938
q11.1816 25.9658 30.6592 45.4395q19.4766 19.4736 46.168 31.0137q26.6904 11.54 56.9883 11.54q19.4766 0 36.0684 -5.76953q16.5918 -5.77051 28.8555 -12.6221q12.2627 -6.85254 19.4766 -13.3438t7.21387 -8.65527q0 7.93457 1.44336 16.5889
q1.44238 8.65527 1.44238 17.3105h49.7744v-270.47h-52.6602v23.0801v6.49121q0 -2.16406 -6.49219 -7.93359q-6.49219 -5.77051 -18.0342 -11.9004q-11.542 -6.13086 -28.4941 -11.1797q-16.9531 -5.04883 -38.5938 -5.04883q-30.2979 0 -56.9883 11.1797
q-26.6914 11.1787 -46.168 30.6533q-19.4775 19.4736 -30.6592 45.0781q-11.1807 25.6045 -11.1807 54.4541z" />
    <glyph glyph-name="guillemotleft" unicode="&#xab;" horiz-adv-x="601" 
d="M459 77l-171 162q43 41 85.5 80.5t85.5 80.5v-94q-17 -17 -32.5 -33.5t-32.5 -33.5q17 -17 32.5 -33.5t32.5 -33.5v-95zM288 77l-171 162q43 41 85.5 80.5t85.5 80.5v-95q-17 -17 -32.5 -33t-32.5 -33q17 -17 32.5 -33.5t32.5 -33.5v-95z" />
    <glyph glyph-name="logicalnot" unicode="&#xac;" horiz-adv-x="559" 
d="M376 148v40h-276v60h360v-100h-84z" />
    <glyph glyph-name="registered" unicode="&#xae;" horiz-adv-x="801" 
d="M400 148q47 0 88 17t71 47t47 71t17 89q0 49 -17 90t-47 71t-71 47t-88 17t-88 -17t-71 -47t-47 -71t-17 -90q0 -48 17 -89t47 -71t71 -47t88 -17zM400 111q-54 0 -102 20t-83.5 55t-56.5 82.5t-21 103.5q0 57 21 105t56.5 83t83.5 54.5t102 19.5t102 -19.5t83.5 -54.5
t56.5 -83t21 -105q0 -56 -21 -103.5t-56.5 -82.5t-83.5 -55t-102 -20zM360 395h41q21 0 34.5 5.5t22 13.5t11.5 18t3 19q0 21 -20.5 37t-49.5 16h-42v-109zM320 210v331h79q16 0 35.5 -5t36.5 -16t28.5 -28t11.5 -41q0 -35 -18 -59t-52 -32q18 -38 36 -75t35 -75h-42
q-17 37 -35 73.5t-35 74.5h-8h-32v-148h-40z" />
    <glyph glyph-name="macron" unicode="&#xaf;" horiz-adv-x="399" 
d="M85 478v53h230v-53h-230z" />
    <glyph glyph-name="degree" unicode="&#xb0;" horiz-adv-x="282" 
d="M138 511q20 0 34.5 14t14.5 34t-14.5 34.5t-34.5 14.5t-34 -14.5t-14 -34.5t14 -34t34 -14zM36 560q0 21 8 39t21.5 31.5t32.5 21.5t40 8t39 -8t31.5 -21.5t21.5 -31.5t8 -39t-8 -39.5t-21.5 -32t-31.5 -21t-39 -7.5t-40 7.5t-32.5 21t-21.5 32t-8 39.5z" />
    <glyph glyph-name="plusminus" unicode="&#xb1;" horiz-adv-x="524" 
d="M224 211v139h-138v81h138v140h84v-140h138v-81h-138v-139h-84zM446 100h-360v81h360v-81z" />
    <glyph glyph-name="twosuperior" unicode="&#xb2;" horiz-adv-x="398" 
d="M202.816 415.006h119.884v-40.0059h-218.553q30.5879 30.6211 59.2012 59.5146q28.6143 28.8926 50.8154 55.8105q22.2002 26.917 35.5205 52.3525t13.3203 48.6484q0 18.2744 -5.91992 31.1162q-5.91992 12.8408 -15.0469 21.2373t-19.7344 12.3477
q-10.6064 3.95117 -19.4873 3.95117q-18.7471 0 -30.5869 -6.4209q-11.8408 -6.4209 -18.7471 -15.8047q-6.90723 -9.38379 -9.62012 -19.7559q-2.71387 -10.3721 -2.71387 -18.2744q0 -16.2988 4.93359 -28.8926q4.93359 -12.5947 14.3066 -22.4727
q-6.41309 -6.41992 -12.333 -12.5938q-5.9209 -6.17383 -12.334 -12.5947q-8.38672 5.43262 -15.0469 14.5703q-6.66016 9.13672 -11.3477 19.7559q-4.68652 10.6182 -7.15332 21.7314q-2.4668 11.1123 -2.4668 20.4961q0 19.7559 6.66016 38.0303t19.7344 32.1035
q13.0732 13.8291 32.3145 21.9785q19.2402 8.14941 44.4004 8.14941q22.6943 0 41.4414 -8.39648t32.0674 -22.4727t20.7207 -32.5967q7.40039 -18.5215 7.40039 -39.2646q0 -24.6953 -8.63379 -47.6611q-8.63281 -22.9668 -22.6934 -45.6855
q-14.0605 -22.7197 -32.3145 -44.6982t-37.9883 -44.2031z" />
    <glyph glyph-name="threesuperior" unicode="&#xb3;" horiz-adv-x="419" 
d="M123.984 540.533q17.2695 30.0381 34.292 59.584t34.292 59.584h-93.7471v40.3789h162.331q-17.7627 -29.5449 -35.2783 -58.5986q-17.5166 -29.0537 -35.2793 -58.5996q16.2822 -5.90918 29.6045 -15.5117t23.1904 -22.4053q9.86816 -12.8037 15.2959 -28.5615
t5.42773 -33.4854q0 -22.1592 -8.63477 -41.6104t-23.4375 -33.9775q-14.8018 -14.5273 -34.292 -22.8984q-19.4893 -8.37109 -41.6924 -8.37109q-23.6836 0 -43.9141 9.60254q-20.2295 9.60254 -35.0312 25.3604q7.40039 6.89355 15.0488 14.0342
q7.64746 7.13965 15.0488 14.0342q8.88086 -10.834 21.4629 -16.9893t27.3848 -6.15527q13.8154 0 25.9033 5.41699q12.0889 5.41699 21.2168 14.5264q9.12793 9.11035 14.5557 21.1748t5.42773 25.8525t-5.42773 25.8525q-5.42773 12.0654 -14.5557 20.9287
t-21.2168 14.0342q-12.0879 5.1709 -25.9033 5.1709q-17.7627 0 -32.0723 -8.37109z" />
    <glyph glyph-name="acute" unicode="&#xb4;" horiz-adv-x="274" 
d="M100 479q23 33 45 66.5t45 66.5h84q-29 -33 -57.5 -66.5t-57.5 -66.5h-59z" />
    <glyph glyph-name="mu" unicode="&#xb5;" horiz-adv-x="545" 
d="M454 -9h-83v60l3 45q-21 -48 -63.5 -75.5t-99.5 -29.5q-25 0 -46 6v-198h-83v576h83v-234q2 -27 19.5 -46.5t55.5 -21.5q26 0 49.5 9t41.5 25t29 38t11 48v182h83v-384z" />
    <glyph glyph-name="paragraph" unicode="&#xb6;" horiz-adv-x="547" 
d="M284 0h-83v423q-34 0 -64 12.5t-52 34.5t-34.5 52t-12.5 64t12.5 64t34.5 52t52 35t64 13h246v-750h-83v669h-80v-669z" />
    <glyph glyph-name="periodcentered" unicode="&#xb7;" horiz-adv-x="168" 
d="M34 282q0 23 16 38t36 15q19 0 35 -15t16 -38t-16 -37.5t-35 -14.5q-20 0 -36 14.5t-16 37.5z" />
    <glyph glyph-name="cedilla" unicode="&#xb8;" horiz-adv-x="452" 
d="M184 0h51v-7q0 -14 4 -22.5t10.5 -14t14 -9t13.5 -8.5q21 -16 29.5 -36t8.5 -45q0 -21 -6.5 -40.5t-20 -34.5t-33 -24t-45.5 -9q-34 0 -62.5 18.5t-41.5 56.5q11 6 23 12t23 12q5 -16 18 -26.5t33 -10.5q24 0 37 16t13 40q0 20 -11 31.5t-23.5 20.5t-23.5 19t-11 27v34z
" />
    <glyph glyph-name="onesuperior" unicode="&#xb9;" horiz-adv-x="273" 
d="M57.6572 662.753v37.2617h69.998v-299.015h-38.6836v261.753h-31.3145z" />
    <glyph glyph-name="ordmasculine" unicode="&#xba;" 
d="M90.9648 441.596q0 28.8496 11.1797 54.8145q11.1797 25.9658 30.6533 45.0791t45.7998 30.292q26.3252 11.1797 56.6182 11.1797q30.292 0 56.9785 -11.1797q26.6865 -11.1787 46.1602 -30.292t30.6533 -45.0791q11.1797 -25.9648 11.1797 -54.8145
q0 -29.5713 -11.1797 -55.1758t-30.6533 -45.0781q-19.4736 -19.4746 -46.1602 -30.6533q-26.6865 -11.1797 -56.9785 -11.1797q-30.293 0 -56.6182 11.1797q-26.3262 11.1787 -45.7998 30.6533q-19.4736 19.4736 -30.6533 45.0781t-11.1797 55.1758zM150.829 440.874
q0 -17.3096 6.49121 -32.4561t17.6709 -26.3262q11.1787 -11.1787 26.3252 -17.6699q15.1465 -6.49219 32.457 -6.49219q17.3096 0 32.4561 6.49219q15.1465 6.49121 26.6865 17.6699q11.54 11.1797 18.0312 26.3262t6.49121 32.4561q0 17.3105 -6.49121 32.4561
q-6.49121 15.1465 -18.0312 26.6865t-26.6865 18.0312t-32.4561 6.49121q-17.3105 0 -32.457 -6.49121t-26.3252 -18.0312q-11.1797 -11.54 -17.6709 -26.6865q-6.49121 -15.1455 -6.49121 -32.4561z" />
    <glyph glyph-name="guillemotright" unicode="&#xbb;" horiz-adv-x="601" 
d="M117.028 77l170.989 162q-42.9971 41 -85.4951 80.5q-42.4971 39.5 -85.4941 80.5v-94q16.999 -17 32.498 -33.5t32.498 -33.5q-16.999 -17 -32.498 -33.5t-32.498 -33.5v-95zM288.018 77l170.989 162q-42.9971 41 -85.4941 80.5q-42.498 39.5 -85.4951 80.5v-95
q16.999 -17 32.498 -33t32.498 -33q-16.999 -17 -32.498 -33.5t-32.498 -33.5v-95z" />
    <glyph glyph-name="onequarter" unicode="&#xbc;" horiz-adv-x="968" 
d="M256 -19q70 190 139 377.5t139 377.5h84q-70 -190 -139 -377.5t-139 -377.5h-84zM711.011 307.557q-21.5459 -28.2979 -42.3496 -55.4795q-20.8037 -27.1807 -42.3496 -55.4795h84.6992v110.959zM501.49 136.278q68.3545 88.6182 135.966 176.864
q67.6113 88.2451 135.965 176.863v-293.408h72.0693v-60.3193h-72.0693v-136.278h-62.4102v136.278h-209.521zM121.137 637.829v57.4873h107.904v-461.316h-59.6309v403.829h-48.2734z" />
    <glyph glyph-name="onehalf" unicode="&#xbd;" horiz-adv-x="1069" 
d="M121.137 637.829v57.4873h107.904v-461.316h-59.6309v403.829h-48.2734zM689.203 57.4873h172.12v-57.4873h-313.782q43.915 44.002 84.9971 85.5205t72.9561 80.1982t50.999 75.2305q19.124 36.5498 19.124 69.9062q0 26.2598 -8.5 44.7129
q-8.49902 18.4521 -21.6035 30.5176q-13.1035 12.0654 -28.332 17.7432t-27.9785 5.67773q-26.916 0 -43.915 -9.22656q-17 -9.22656 -26.916 -22.7109q-9.91699 -13.4844 -13.8125 -28.3887t-3.89551 -26.2598q0 -23.4209 7.08301 -41.5186t20.541 -32.292
q-9.20801 -9.22559 -17.708 -18.0977q-8.49902 -8.87109 -17.707 -18.0977q-12.042 7.80664 -21.6035 20.9365q-9.5625 13.1299 -16.292 28.3887q-6.72852 15.2588 -10.2705 31.2275q-3.54102 15.9688 -3.54102 29.4531q0 28.3887 9.56152 54.6484
q9.5625 26.2598 28.333 46.1318t46.3945 31.582q27.624 11.7109 63.748 11.7109q32.582 0 59.498 -12.0654t46.041 -32.292q19.124 -20.2275 29.749 -46.8418q10.624 -26.6143 10.624 -56.4219q0 -35.4863 -12.3955 -68.4883t-32.582 -65.6484
q-20.1865 -32.6475 -46.3945 -64.2295q-26.207 -31.583 -54.54 -63.5195zM256 -19q70 190 139 377.5t139 377.5h84q-70 -190 -139 -377.5t-139 -377.5h-84z" />
    <glyph glyph-name="threequarters" unicode="&#xbe;" horiz-adv-x="1276" 
d="M212.053 457.181q27.0576 47.1865 53.7285 93.6006q26.6709 46.4131 53.7285 93.6006h-146.884v63.4316h254.341q-27.8301 -46.4131 -55.2744 -92.0537q-27.4443 -45.6396 -55.2744 -92.0527q25.5107 -9.2832 46.3838 -24.3672q20.873 -15.085 36.335 -35.1973
q15.4609 -20.1123 23.9648 -44.8662t8.50391 -52.6025q0 -34.8105 -13.5293 -65.3652q-13.5283 -30.5557 -36.7207 -53.376t-53.7285 -35.9707t-65.3242 -13.1504q-37.1074 0 -68.8037 15.084q-31.6953 15.085 -54.8877 39.8389q11.5957 10.8301 23.5781 22.0459
q11.9834 11.2168 23.5791 22.0469q13.915 -17.0186 33.6289 -26.6875q19.7129 -9.66992 42.9053 -9.66992q21.6455 0 40.5859 8.50879q18.9404 8.50977 33.2422 22.8203t22.8057 33.2637q8.50391 18.9521 8.50391 40.6113q0 21.6602 -8.50391 40.6123t-22.8057 32.876
t-33.2422 22.0469q-18.9404 8.12207 -40.5859 8.12207q-27.8311 0 -50.25 -13.1504zM446 -19q70 190 139 377.5t139 377.5h84q-70 -190 -139 -377.5t-139 -377.5h-84zM910.011 307.557q-21.5459 -28.2979 -42.3496 -55.4795q-20.8037 -27.1807 -42.3496 -55.4795h84.6992
v110.959zM700.49 136.278q68.3545 88.6182 135.966 176.864q67.6113 88.2451 135.965 176.863v-293.408h72.0693v-60.3193h-72.0693v-136.278h-62.4102v136.278h-209.521z" />
    <glyph glyph-name="questiondown" unicode="&#xbf;" horiz-adv-x="452" 
d="M354.007 -12.9668q17.999 -6.99902 36.498 -13.499q18.499 -6.49902 36.498 -13.499q-7 -21.998 -19.999 -48.4971q-12.999 -26.498 -35.998 -49.4971q-22.998 -22.998 -57.9961 -38.9971t-85.9951 -15.999q-40.9971 0 -76.9951 15.499t-62.4961 41.9971
q-26.499 26.498 -41.498 61.9961t-14.999 75.4961q0 55.9961 26.499 97.4932q26.498 41.498 71.4951 75.4961q13.999 9.99902 29.998 20.498q15.999 10.5 29.998 23.999q14 13.499 22.999 31.998t8.99902 45.4971v77.9951h83.9951v-96.9941q0 -31.998 -9.99902 -51.9961
q-10 -19.999 -26.999 -35.498q-16.998 -15.499 -37.9971 -28.998q-20.999 -13.5 -43.9971 -31.498q-35.998 -26.999 -52.9971 -58.9971t-16.999 -68.9951q0 -48.9971 30.498 -81.4951t80.4951 -32.498q55.9971 0 83.9951 24.998q27.998 24.999 42.9971 73.9951zM264.013 539
q19.999 0 35.9971 -14.499q16 -14.499 16 -37.498q0 -22.998 -16 -37.9971q-15.998 -14.999 -35.9971 -14.999q-18.999 0 -34.998 14.999t-15.999 37.9971q0 22.999 15.999 37.498t34.998 14.499z" />
    <glyph glyph-name="Agrave" unicode="&#xc0;" horiz-adv-x="740" 
d="M380 515l-9 33q-14 -50 -35 -97t-41 -95h152q-17 40 -33.5 79.5t-33.5 79.5zM681 0h-83q-29 69 -58.5 138.5t-58.5 138.5h-220q-29 -69 -58.5 -138.5t-58.5 -138.5h-83q78 184 155 366t155 366q78 -184 155 -366t155 -366zM299 883q23 -33 45 -66.5t45 -66.5h-59
q-29 33 -57.5 66.5t-57.5 66.5h84z" />
    <glyph glyph-name="Aacute" unicode="&#xc1;" horiz-adv-x="740" 
d="M380 515l-9 33q-14 -50 -35 -97t-41 -95h152q-17 40 -33.5 79.5t-33.5 79.5zM681 0h-83q-29 69 -58.5 138.5t-58.5 138.5h-220q-29 -69 -58.5 -138.5t-58.5 -138.5h-83q78 184 155 366t155 366q78 -184 155 -366t155 -366zM342 750q23 33 45 66.5t45 66.5h84
q-29 -33 -57.5 -66.5t-57.5 -66.5h-59z" />
    <glyph glyph-name="Acircumflex" unicode="&#xc2;" horiz-adv-x="740" 
d="M380 515l-9 33q-14 -50 -35 -97t-41 -95h152q-17 40 -33.5 79.5t-33.5 79.5zM681 0h-83q-29 69 -58.5 138.5t-58.5 138.5h-220q-29 -69 -58.5 -138.5t-58.5 -138.5h-83q78 184 155 366t155 366q78 -184 155 -366t155 -366zM371 931q30 -45 60 -90.5t60 -90.5h-59
q-15 18 -30.5 36t-30.5 36q-15 -18 -30.5 -36t-30.5 -36h-59q30 45 60 90.5t60 90.5z" />
    <glyph glyph-name="Atilde" unicode="&#xc3;" horiz-adv-x="740" 
d="M380 515l-9 33q-14 -50 -35 -97t-41 -95h152q-17 40 -33.5 79.5t-33.5 79.5zM681 0h-83q-29 69 -58.5 138.5t-58.5 138.5h-220q-29 -69 -58.5 -138.5t-58.5 -138.5h-83q78 184 155 366t155 366q78 -184 155 -366t155 -366zM362 785q-15 16 -26.5 21t-25.5 5t-32 -9
t-21 -37l-45 3q1 20 10 36.5t22 28t28.5 17.5t30.5 6q23 0 41.5 -9t35.5 -24q15 -16 26.5 -21t25.5 -5q7 0 15.5 2t16.5 7t13.5 14t7.5 23l45 -3q-1 -20 -10 -36.5t-22 -27.5t-28.5 -17t-30.5 -6q-23 0 -41.5 9t-35.5 23z" />
    <glyph glyph-name="Adieresis" unicode="&#xc4;" horiz-adv-x="740" 
d="M380 515l-9 33q-14 -50 -35 -97t-41 -95h152q-17 40 -33.5 79.5t-33.5 79.5zM681 0h-83q-29 69 -58.5 138.5t-58.5 138.5h-220q-29 -69 -58.5 -138.5t-58.5 -138.5h-83q78 184 155 366t155 366q78 -184 155 -366t155 -366zM403 810q0 23 16 38t36 15q19 0 35 -15t16 -38
t-16 -37.5t-35 -14.5q-20 0 -36 14.5t-16 37.5zM237 810q0 23 16 38t36 15q19 0 35 -15t16 -38t-16 -37.5t-35 -14.5q-20 0 -36 14.5t-16 37.5z" />
    <glyph glyph-name="Aring" unicode="&#xc5;" horiz-adv-x="740" 
d="M339 837q0 -14 9 -23t23 -9t23.5 9t9.5 23t-9.5 23.5t-23.5 9.5t-23 -9.5t-9 -23.5zM284 838q0 18 7 33.5t19 27.5t27.5 19t33.5 7t33.5 -7t27.5 -19t19 -27.5t7 -33.5t-7 -33.5t-19 -27.5t-27.5 -19t-33.5 -7t-33.5 7t-27.5 19t-19 27.5t-7 33.5zM380 515l-9 33
q-14 -50 -35 -97t-41 -95h152q-17 40 -33.5 79.5t-33.5 79.5zM681 0h-83q-29 69 -58.5 138.5t-58.5 138.5h-220q-29 -69 -58.5 -138.5t-58.5 -138.5h-83q78 184 155 366t155 366q78 -184 155 -366t155 -366z" />
    <glyph glyph-name="AE" unicode="&#xc6;" horiz-adv-x="800" 
d="M370 343v205q-14 -52 -37.5 -103t-44.5 -102h82zM60 0q75 176 148 350t148 350h350v-79h-253v-229h214v-79h-214v-234h267v-79h-350v264h-115l-56 -132l-56 -132h-83z" />
    <glyph glyph-name="Ccedilla" unicode="&#xc7;" horiz-adv-x="670" 
d="M556 108l45 -66q-38 -22 -80 -35t-88 -15q0 -14 4.5 -22.5t10.5 -14t13.5 -9t13.5 -7.5q21 -16 29.5 -36t8.5 -45q0 -21 -6.5 -40.5t-20 -34.5t-33 -24t-45.5 -9q-34 0 -62.5 18.5t-41.5 56.5q11 6 23 12t23 12q5 -16 18 -26.5t33 -10.5q24 0 37 16t13 40q0 20 -11 31.5
t-23.5 20.5t-23.5 19t-11 27v28q-68 7 -126 37t-101.5 77.5t-68 109.5t-24.5 131q0 74 28 139.5t76.5 114t113.5 77t139 28.5q51 0 96.5 -13t86.5 -37q-11 -17 -23 -33.5t-23 -33.5q-31 18 -65 28t-72 10q-57 0 -106.5 -22t-87 -60.5t-59 -89.5t-21.5 -108t21.5 -108
t59 -88.5t87 -59.5t106.5 -22q74 0 137 37z" />
    <glyph glyph-name="Egrave" unicode="&#xc8;" horiz-adv-x="601" 
d="M69 0v700h431v-79h-348v-229h309v-79h-309v-234h362v-79h-445zM229 883q23 -33 45 -66.5t45 -66.5h-59q-29 33 -57.5 66.5t-57.5 66.5h84z" />
    <glyph glyph-name="Eacute" unicode="&#xc9;" horiz-adv-x="601" 
d="M69 0v700h431v-79h-348v-229h309v-79h-309v-234h362v-79h-445zM263 750q23 33 45 66.5t45 66.5h84q-29 -33 -57.5 -66.5t-57.5 -66.5h-59z" />
    <glyph glyph-name="Ecircumflex" unicode="&#xca;" horiz-adv-x="601" 
d="M69 0v700h431v-79h-348v-229h309v-79h-309v-234h362v-79h-445zM300 931q30 -45 60 -90.5t60 -90.5h-59q-15 18 -30.5 36t-30.5 36q-15 -18 -30.5 -36t-30.5 -36h-59q30 45 60 90.5t60 90.5z" />
    <glyph glyph-name="Edieresis" unicode="&#xcb;" horiz-adv-x="601" 
d="M69 0v700h431v-79h-348v-229h309v-79h-309v-234h362v-79h-445zM322 810q0 23 16 38t36 15q19 0 35 -15t16 -38t-16 -37.5t-35 -14.5q-20 0 -36 14.5t-16 37.5zM156 810q0 23 16 38t36 15q19 0 35 -15t16 -38t-16 -37.5t-35 -14.5q-20 0 -36 14.5t-16 37.5z" />
    <glyph glyph-name="Igrave" unicode="&#xcc;" horiz-adv-x="236" 
d="M99 700h83v-700h-83v700zM69 883q23 -33 45 -66.5t45 -66.5h-59q-29 33 -57.5 66.5t-57.5 66.5h84z" />
    <glyph glyph-name="Iacute" unicode="&#xcd;" horiz-adv-x="236" 
d="M99 700h83v-700h-83v700zM123 750q23 33 45 66.5t45 66.5h84q-29 -33 -57.5 -66.5t-57.5 -66.5h-59z" />
    <glyph glyph-name="Icircumflex" unicode="&#xce;" horiz-adv-x="286" 
d="M99 700h83v-700h-83v700zM141 931q30 -45 60 -90.5t60 -90.5h-59q-15 18 -30.5 36t-30.5 36q-15 -18 -30.5 -36t-30.5 -36h-59q30 45 60 90.5t60 90.5z" />
    <glyph glyph-name="Idieresis" unicode="&#xcf;" horiz-adv-x="236" 
d="M99 700h83v-700h-83v700zM170 810q0 23 16 38t36 15q19 0 35 -15t16 -38t-16 -37.5t-35 -14.5q-20 0 -36 14.5t-16 37.5zM4 810q0 23 16 38t36 15q19 0 35 -15t16 -38t-16 -37.5t-35 -14.5q-20 0 -36 14.5t-16 37.5z" />
    <glyph glyph-name="Eth" unicode="&#xd0;" horiz-adv-x="646" 
d="M143 309v-230h75q64 0 119.5 19t96 54.5t63.5 85.5t23 112t-23 112.5t-63.5 86t-96 54.5t-119.5 19h-75v-232h181v-81h-181zM60 390v310h152q79 0 150.5 -24.5t124.5 -70t84.5 -110.5t31.5 -145q0 -59 -23 -121t-74 -113t-133 -83.5t-200 -32.5h-113v309h-38v81h38z" />
    <glyph glyph-name="Ntilde" unicode="&#xd1;" horiz-adv-x="813" 
d="M711 700v-732q-129 137 -256 272t-256 272q-5 7 -9.5 13t-9.5 13q1 -8 1.5 -16t1.5 -16v-506h-83v732q129 -140 256 -277.5t256 -277.5q5 -7 9.5 -13t9.5 -13q-1 8 -1.5 16t-1.5 16v517h83zM402 773q-15 16 -26.5 21t-25.5 5t-32 -9t-21 -37l-45 3q1 20 10 36.5t22 28
t28.5 17.5t30.5 6q23 0 41.5 -9t35.5 -24q15 -16 26.5 -21t25.5 -5q7 0 15.5 2t16.5 7t13.5 14t7.5 23l45 -3q-1 -20 -10 -36.5t-22 -27.5t-28.5 -17t-30.5 -6q-23 0 -41.5 9t-35.5 23z" />
    <glyph glyph-name="Ograve" unicode="&#xd2;" horiz-adv-x="839" 
d="M60 349q0 73 28 138.5t76.5 114.5t113.5 77.5t139 28.5q73 0 138.5 -28.5t114.5 -77.5t77.5 -114.5t28.5 -138.5q0 -74 -28.5 -139t-77.5 -113.5t-114.5 -76.5t-138.5 -28q-74 0 -139 28t-113.5 76.5t-76.5 113.5t-28 139zM143 349q0 -58 21.5 -108.5t59 -88t87.5 -59.5
t107 -22t107 22t87.5 59.5t59 88t21.5 108.5t-21.5 108.5t-59 88.5t-87.5 60t-107 22t-107 -22t-87.5 -60t-59 -88.5t-21.5 -108.5zM344 883q23 -33 45 -66.5t45 -66.5h-59q-29 33 -57.5 66.5t-57.5 66.5h84z" />
    <glyph glyph-name="Oacute" unicode="&#xd3;" horiz-adv-x="840" 
d="M60 349q0 73 28 138.5t76.5 114.5t113.5 77.5t139 28.5q73 0 138.5 -28.5t114.5 -77.5t77.5 -114.5t28.5 -138.5q0 -74 -28.5 -139t-77.5 -113.5t-114.5 -76.5t-138.5 -28q-74 0 -139 28t-113.5 76.5t-76.5 113.5t-28 139zM143 349q0 -58 21.5 -108.5t59 -88t87.5 -59.5
t107 -22t107 22t87.5 59.5t59 88t21.5 108.5t-21.5 108.5t-59 88.5t-87.5 60t-107 22t-107 -22t-87.5 -60t-59 -88.5t-21.5 -108.5zM400 750q23 33 45 66.5t45 66.5h84q-29 -33 -57.5 -66.5t-57.5 -66.5h-59z" />
    <glyph glyph-name="Ocircumflex" unicode="&#xd4;" horiz-adv-x="839" 
d="M60 349q0 73 28 138.5t76.5 114.5t113.5 77.5t139 28.5q73 0 138.5 -28.5t114.5 -77.5t77.5 -114.5t28.5 -138.5q0 -74 -28.5 -139t-77.5 -113.5t-114.5 -76.5t-138.5 -28q-74 0 -139 28t-113.5 76.5t-76.5 113.5t-28 139zM143 349q0 -58 21.5 -108.5t59 -88t87.5 -59.5
t107 -22t107 22t87.5 59.5t59 88t21.5 108.5t-21.5 108.5t-59 88.5t-87.5 60t-107 22t-107 -22t-87.5 -60t-59 -88.5t-21.5 -108.5zM417 931q30 -45 60 -90.5t60 -90.5h-59q-15 18 -30.5 36t-30.5 36q-15 -18 -30.5 -36t-30.5 -36h-59q30 45 60 90.5t60 90.5z" />
    <glyph glyph-name="Otilde" unicode="&#xd5;" horiz-adv-x="839" 
d="M60 349q0 73 28 138.5t76.5 114.5t113.5 77.5t139 28.5q73 0 138.5 -28.5t114.5 -77.5t77.5 -114.5t28.5 -138.5q0 -74 -28.5 -139t-77.5 -113.5t-114.5 -76.5t-138.5 -28q-74 0 -139 28t-113.5 76.5t-76.5 113.5t-28 139zM143 349q0 -58 21.5 -108.5t59 -88t87.5 -59.5
t107 -22t107 22t87.5 59.5t59 88t21.5 108.5t-21.5 108.5t-59 88.5t-87.5 60t-107 22t-107 -22t-87.5 -60t-59 -88.5t-21.5 -108.5zM412 808q-15 16 -26.5 21t-25.5 5t-32 -9t-21 -37l-45 3q1 20 10 36.5t22 28t28.5 17.5t30.5 6q23 0 41.5 -9t35.5 -24q15 -16 26.5 -21
t25.5 -5q7 0 15.5 2t16.5 7t13.5 14t7.5 23l45 -3q-1 -20 -10 -36.5t-22 -27.5t-28.5 -17t-30.5 -6q-23 0 -41.5 9t-35.5 23z" />
    <glyph glyph-name="Odieresis" unicode="&#xd6;" horiz-adv-x="839" 
d="M60 349q0 73 28 138.5t76.5 114.5t113.5 77.5t139 28.5q73 0 138.5 -28.5t114.5 -77.5t77.5 -114.5t28.5 -138.5q0 -74 -28.5 -139t-77.5 -113.5t-114.5 -76.5t-138.5 -28q-74 0 -139 28t-113.5 76.5t-76.5 113.5t-28 139zM143 349q0 -58 21.5 -108.5t59 -88t87.5 -59.5
t107 -22t107 22t87.5 59.5t59 88t21.5 108.5t-21.5 108.5t-59 88.5t-87.5 60t-107 22t-107 -22t-87.5 -60t-59 -88.5t-21.5 -108.5zM450 810q0 23 16 38t36 15q19 0 35 -15t16 -38t-16 -37.5t-35 -14.5q-20 0 -36 14.5t-16 37.5zM284 810q0 23 16 38t36 15q19 0 35 -15
t16 -38t-16 -37.5t-35 -14.5q-20 0 -36 14.5t-16 37.5z" />
    <glyph glyph-name="multiply" unicode="&#xd7;" horiz-adv-x="500" 
d="M364 0q-25 25 -49.5 49t-49.5 49l-97 -97q-14 14 -29 28.5t-29 28.5l98 98l-99 99l59 59l99 -99l98 98q14 -14 28.5 -29t28.5 -29l-97 -97q25 -25 49 -49.5t49 -49.5z" />
    <glyph glyph-name="Oslash" unicode="&#xd8;" horiz-adv-x="840" 
d="M145 349q0 -53 18 -99.5t50 -83.5q90 105 178.5 208t178.5 208q-33 22 -71 34.5t-80 12.5q-57 0 -106.5 -22t-87 -60.5t-59 -89.5t-21.5 -108zM419 71q57 0 107 22t87.5 59.5t59.5 88.5t22 108q0 52 -18 98.5t-50 83.5q-90 -105 -178 -208t-178 -208q32 -21 69 -32.5
t79 -11.5zM62 349q0 74 28 139.5t76.5 114t113.5 77t139 28.5q57 0 108.5 -17t95.5 -47q16 19 32 37.5t32 37.5q14 -13 29 -25.5t29 -25.5q-16 -19 -32 -37t-32 -37q45 -48 71 -111t26 -134q0 -74 -28.5 -139t-77 -113.5t-114 -76.5t-139.5 -28q-57 0 -107.5 16t-93.5 45
q-15 -17 -30 -35t-30 -35q-14 13 -29 25.5t-29 25.5q15 17 29.5 34.5t29.5 34.5q-45 48 -71 111t-26 135z" />
    <glyph glyph-name="Ugrave" unicode="&#xd9;" horiz-adv-x="652" 
d="M328 -8q-54 0 -100 15t-80 44.5t-53 73.5t-19 101v474h83v-471q0 -38 12.5 -67.5t35 -49.5t53.5 -30.5t68 -10.5t68 10.5t53.5 30.5t35.5 49.5t13 67.5v471h83v-474q0 -57 -19.5 -101t-53.5 -73.5t-80 -44.5t-100 -15zM270 883q23 -33 45 -66.5t45 -66.5h-59
q-29 33 -57.5 66.5t-57.5 66.5h84z" />
    <glyph glyph-name="Uacute" unicode="&#xda;" horiz-adv-x="652" 
d="M328 -8q-54 0 -100 15t-80 44.5t-53 73.5t-19 101v474h83v-471q0 -38 12.5 -67.5t35 -49.5t53.5 -30.5t68 -10.5t68 10.5t53.5 30.5t35.5 49.5t13 67.5v471h83v-474q0 -57 -19.5 -101t-53.5 -73.5t-80 -44.5t-100 -15zM300 750q23 33 45 66.5t45 66.5h84
q-29 -33 -57.5 -66.5t-57.5 -66.5h-59z" />
    <glyph glyph-name="Ucircumflex" unicode="&#xdb;" horiz-adv-x="652" 
d="M328 -8q-54 0 -100 15t-80 44.5t-53 73.5t-19 101v474h83v-471q0 -38 12.5 -67.5t35 -49.5t53.5 -30.5t68 -10.5t68 10.5t53.5 30.5t35.5 49.5t13 67.5v471h83v-474q0 -57 -19.5 -101t-53.5 -73.5t-80 -44.5t-100 -15zM326 932q30 -45 60 -90.5t60 -90.5h-59
q-15 18 -30.5 36t-30.5 36q-15 -18 -30.5 -36t-30.5 -36h-59q30 45 60 90.5t60 90.5z" />
    <glyph glyph-name="Udieresis" unicode="&#xdc;" horiz-adv-x="652" 
d="M328 -8q-54 0 -100 15t-80 44.5t-53 73.5t-19 101v474h83v-471q0 -38 12.5 -67.5t35 -49.5t53.5 -30.5t68 -10.5t68 10.5t53.5 30.5t35.5 49.5t13 67.5v471h83v-474q0 -57 -19.5 -101t-53.5 -73.5t-80 -44.5t-100 -15zM362 810q0 23 16 38t36 15q19 0 35 -15t16 -38
t-16 -37.5t-35 -14.5q-20 0 -36 14.5t-16 37.5zM196 810q0 23 16 38t36 15q19 0 35 -15t16 -38t-16 -37.5t-35 -14.5q-20 0 -36 14.5t-16 37.5z" />
    <glyph glyph-name="Yacute" unicode="&#xdd;" horiz-adv-x="638" 
d="M369 269v-269h-102v270q-64 108 -127.5 215t-127.5 215h102q48 -81 96 -161.5t96 -161.5q3 -8 5.5 -15.5t5.5 -15.5h1q3 8 6 15.5t6 15.5q48 81 95.5 161.5t95.5 161.5h102q-64 -109 -127 -215.5t-127 -215.5zM278 750q23 33 45 66.5t45 66.5h84q-29 -33 -57.5 -66.5
t-57.5 -66.5h-59z" />
    <glyph glyph-name="Thorn" unicode="&#xde;" horiz-adv-x="501" 
d="M183 227h87q44 0 72.5 11.5t45.5 28.5t24 38t7 40q0 22 -11.5 42.5t-31 36t-47 24.5t-58.5 9h-88v-230zM183 0h-83v700h83v-165h82q34 0 75.5 -10.5t77.5 -33.5t60 -59t24 -87q0 -91 -54 -144.5t-156 -53.5h-109v-147z" />
    <glyph glyph-name="germandbls" unicode="&#xdf;" horiz-adv-x="573" 
d="M197 9q8 19 17 37t17 37q25 -11 52 -11q28 0 52.5 11t43 29.5t29.5 43t11 52.5t-11 52.5t-30 42.5t-43.5 28.5t-52.5 10.5h-1q0 10 -0.5 19.5t-0.5 20.5v41q34 0 57 19.5t23 54.5q0 16 -6 30.5t-16 25.5t-24 17t-30 6q-57 -3 -92.5 -43.5t-35.5 -114.5v-418h-83v334h-64
v81h64v8q0 54 17.5 97.5t46.5 74t67 46.5t79 16q33 0 62 -12.5t51 -34.5t34.5 -51t12.5 -62q0 -32 -12 -59.5t-32 -47.5q46 -29 74.5 -76.5t28.5 -105.5q0 -45 -17.5 -84.5t-47.5 -69t-69.5 -46.5t-84.5 -17q-47 0 -86 18z" />
    <glyph glyph-name="agrave" unicode="&#xe0;" horiz-adv-x="551" 
d="M133 188q0 -49 32.5 -82.5t84.5 -33.5t84.5 33.5t32.5 82.5q0 50 -32.5 82.5t-84.5 32.5t-84.5 -32.5t-32.5 -82.5zM49 187q0 39 15.5 75t42.5 63t64 43t79 16q27 0 50 -8t40 -17.5t27 -18.5t10 -12q0 11 2 23t2 24h69v-375h-73v32v9q0 -3 -9 -11t-25 -16.5t-39.5 -15.5
t-53.5 -7q-42 0 -79 15.5t-64 42.5t-42.5 62.5t-15.5 75.5zM188 612q23 -33 45 -66.5t45 -66.5h-59q-29 33 -57.5 66.5t-57.5 66.5h84z" />
    <glyph glyph-name="aacute" unicode="&#xe1;" horiz-adv-x="551" 
d="M133 188q0 -49 32.5 -82.5t84.5 -33.5t84.5 33.5t32.5 82.5q0 50 -32.5 82.5t-84.5 32.5t-84.5 -32.5t-32.5 -82.5zM49 187q0 39 15.5 75t42.5 63t64 43t79 16q27 0 50 -8t40 -17.5t27 -18.5t10 -12q0 11 2 23t2 24h69v-375h-73v32v9q0 -3 -9 -11t-25 -16.5t-39.5 -15.5
t-53.5 -7q-42 0 -79 15.5t-64 42.5t-42.5 62.5t-15.5 75.5zM232 479q23 33 45 66.5t45 66.5h84q-29 -33 -57.5 -66.5t-57.5 -66.5h-59z" />
    <glyph glyph-name="acircumflex" unicode="&#xe2;" horiz-adv-x="551" 
d="M133 188q0 -49 32.5 -82.5t84.5 -33.5t84.5 33.5t32.5 82.5q0 50 -32.5 82.5t-84.5 32.5t-84.5 -32.5t-32.5 -82.5zM49 187q0 39 15.5 75t42.5 63t64 43t79 16q27 0 50 -8t40 -17.5t27 -18.5t10 -12q0 11 2 23t2 24h69v-375h-73v32v9q0 -3 -9 -11t-25 -16.5t-39.5 -15.5
t-53.5 -7q-42 0 -79 15.5t-64 42.5t-42.5 62.5t-15.5 75.5zM261 660q30 -45 60 -90.5t60 -90.5h-59q-15 18 -30.5 36t-30.5 36q-15 -18 -30.5 -36t-30.5 -36h-59q30 45 60 90.5t60 90.5z" />
    <glyph glyph-name="atilde" unicode="&#xe3;" horiz-adv-x="551" 
d="M133 188q0 -49 32.5 -82.5t84.5 -33.5t84.5 33.5t32.5 82.5q0 50 -32.5 82.5t-84.5 32.5t-84.5 -32.5t-32.5 -82.5zM49 187q0 39 15.5 75t42.5 63t64 43t79 16q27 0 50 -8t40 -17.5t27 -18.5t10 -12q0 11 2 23t2 24h69v-375h-73v32v9q0 -3 -9 -11t-25 -16.5t-39.5 -15.5
t-53.5 -7q-42 0 -79 15.5t-64 42.5t-42.5 62.5t-15.5 75.5zM266 481q-15 16 -26.5 21t-25.5 5t-32 -9t-21 -37l-45 3q1 20 10 36.5t22 28t28.5 17.5t30.5 6q23 0 41.5 -9t35.5 -24q15 -16 26.5 -21t25.5 -5q7 0 15.5 2t16.5 7t13.5 14t7.5 23l45 -3q-1 -20 -10 -36.5
t-22 -27.5t-28.5 -17t-30.5 -6q-23 0 -41.5 9t-35.5 23z" />
    <glyph glyph-name="adieresis" unicode="&#xe4;" horiz-adv-x="551" 
d="M133 188q0 -49 32.5 -82.5t84.5 -33.5t84.5 33.5t32.5 82.5q0 50 -32.5 82.5t-84.5 32.5t-84.5 -32.5t-32.5 -82.5zM49 187q0 39 15.5 75t42.5 63t64 43t79 16q27 0 50 -8t40 -17.5t27 -18.5t10 -12q0 11 2 23t2 24h69v-375h-73v32v9q0 -3 -9 -11t-25 -16.5t-39.5 -15.5
t-53.5 -7q-42 0 -79 15.5t-64 42.5t-42.5 62.5t-15.5 75.5zM293 520q0 23 16 38t36 15q19 0 35 -15t16 -38t-16 -37.5t-35 -14.5q-20 0 -36 14.5t-16 37.5zM127 520q0 23 16 38t36 15q19 0 35 -15t16 -38t-16 -37.5t-35 -14.5q-20 0 -36 14.5t-16 37.5z" />
    <glyph glyph-name="aring" unicode="&#xe5;" horiz-adv-x="551" 
d="M218 539q0 -14 9 -23t23 -9t23.5 9t9.5 23t-9.5 23.5t-23.5 9.5t-23 -9.5t-9 -23.5zM163 540q0 18 7 33.5t19 27.5t27.5 19t33.5 7t33.5 -7t27.5 -19t19 -27.5t7 -33.5t-7 -33.5t-19 -27.5t-27.5 -19t-33.5 -7t-33.5 7t-27.5 19t-19 27.5t-7 33.5zM133 188
q0 -49 32.5 -82.5t84.5 -33.5t84.5 33.5t32.5 82.5q0 50 -32.5 82.5t-84.5 32.5t-84.5 -32.5t-32.5 -82.5zM49 187q0 39 15.5 75t42.5 63t64 43t79 16q27 0 50 -8t40 -17.5t27 -18.5t10 -12q0 11 2 23t2 24h69v-375h-73v32v9q0 -3 -9 -11t-25 -16.5t-39.5 -15.5t-53.5 -7
q-42 0 -79 15.5t-64 42.5t-42.5 62.5t-15.5 75.5z" />
    <glyph glyph-name="ae" unicode="&#xe6;" horiz-adv-x="629" 
d="M360 244v-22l60 22l60 22q-14 17 -31.5 27.5t-38.5 10.5q-29 0 -53 -11q3 -21 3 -49zM276 136h-56q-14 0 -30.5 -1t-30.5 -4t-23 -8.5t-9 -14.5q0 -21 24 -28t51 -7q11 0 24 0.5t24 3.5t18.5 10.5t7.5 22.5v26zM102 276q-11 14 -22 26.5t-22 26.5q11 11 28.5 21.5
t37.5 18t41 12t40 4.5q78 0 112 -22q44 22 93 22q31 0 59.5 -12.5t51 -34.5t39.5 -52.5t26 -66.5q-57 -21 -113 -42t-113 -42v-4q0 -24 -5 -47q12 -6 26 -8.5t29 -2.5q46 0 76 32l51 -60q-25 -25 -57 -39t-70 -14q-53 0 -98 25q-37 -25 -109 -25q-36 0 -65.5 5.5t-50.5 19.5
t-32.5 37t-11.5 58q0 31 12 52.5t32.5 34t46.5 18t53 5.5h89v24q0 15 -2.5 25.5t-10 18t-22 11t-37.5 3.5q-13 0 -27.5 -2.5t-28.5 -6.5t-26.5 -9t-19.5 -10z" />
    <glyph glyph-name="ccedilla" unicode="&#xe7;" horiz-adv-x="395" 
d="M311 97q13 -16 25 -31.5t25 -31.5q-26 -20 -58 -31.5t-68 -11.5q0 -14 4.5 -22t11 -13.5t13.5 -9t13 -7.5q21 -16 29.5 -36t8.5 -45q0 -34 -17 -62.5t-51 -39.5q-17 -6 -37 -6q-34 0 -62.5 18.5t-41.5 56.5q11 6 23 12t23 12q5 -16 18 -26.5t33 -10.5q24 0 37 16t13 40
q0 20 -11 31.5t-23.5 20.5t-23.5 19t-11 27v32q-32 8 -59.5 26t-47 43t-30.5 56t-11 65q0 40 15.5 76t42.5 62.5t63.5 42t78.5 15.5q37 0 69 -11.5t58 -31.5q-13 -16 -26 -31t-26 -31q-32 24 -75 24q-52 0 -84.5 -32.5t-32.5 -82.5q0 -49 32.5 -82.5t84.5 -33.5q44 0 75 25z
" />
    <glyph glyph-name="egrave" unicode="&#xe8;" horiz-adv-x="451" 
d="M236 303q-40 0 -69 -20t-41 -52q-5 -15 -7 -35q47 17 93.5 34.5t93.5 34.5q-14 17 -31.5 27.5t-38.5 10.5zM412 218q-68 -25 -135.5 -50t-135.5 -50q15 -21 39.5 -33.5t55.5 -12.5q46 0 76 32l51 -60q-25 -25 -57 -39t-70 -14q-42 0 -78.5 15.5t-63.5 42.5t-42.5 62.5
t-15.5 76.5q0 40 15.5 76t42.5 62.5t63.5 42t78.5 15.5q31 0 59.5 -12.5t51 -34.5t39.5 -52.5t26 -66.5zM142 612q23 -33 45 -66.5t45 -66.5h-59q-29 33 -57.5 66.5t-57.5 66.5h84z" />
    <glyph glyph-name="eacute" unicode="&#xe9;" horiz-adv-x="451" 
d="M236 303q-40 0 -69 -20t-41 -52q-5 -15 -7 -35q47 17 93.5 34.5t93.5 34.5q-14 17 -31.5 27.5t-38.5 10.5zM412 218q-68 -25 -135.5 -50t-135.5 -50q15 -21 39.5 -33.5t55.5 -12.5q46 0 76 32l51 -60q-25 -25 -57 -39t-70 -14q-42 0 -78.5 15.5t-63.5 42.5t-42.5 62.5
t-15.5 76.5q0 40 15.5 76t42.5 62.5t63.5 42t78.5 15.5q31 0 59.5 -12.5t51 -34.5t39.5 -52.5t26 -66.5zM219 479q23 33 45 66.5t45 66.5h84q-29 -33 -57.5 -66.5t-57.5 -66.5h-59z" />
    <glyph glyph-name="ecircumflex" unicode="&#xea;" horiz-adv-x="451" 
d="M236 303q-40 0 -69 -20t-41 -52q-5 -15 -7 -35q47 17 93.5 34.5t93.5 34.5q-14 17 -31.5 27.5t-38.5 10.5zM412 218q-68 -25 -135.5 -50t-135.5 -50q15 -21 39.5 -33.5t55.5 -12.5q46 0 76 32l51 -60q-25 -25 -57 -39t-70 -14q-42 0 -78.5 15.5t-63.5 42.5t-42.5 62.5
t-15.5 76.5q0 40 15.5 76t42.5 62.5t63.5 42t78.5 15.5q31 0 59.5 -12.5t51 -34.5t39.5 -52.5t26 -66.5zM232 660q30 -45 60 -90.5t60 -90.5h-59q-15 18 -30.5 36t-30.5 36q-15 -18 -30.5 -36t-30.5 -36h-59q30 45 60 90.5t60 90.5z" />
    <glyph glyph-name="edieresis" unicode="&#xeb;" horiz-adv-x="451" 
d="M236 303q-40 0 -69 -20t-41 -52q-5 -15 -7 -35q47 17 93.5 34.5t93.5 34.5q-14 17 -31.5 27.5t-38.5 10.5zM412 218q-68 -25 -135.5 -50t-135.5 -50q15 -21 39.5 -33.5t55.5 -12.5q46 0 76 32l51 -60q-25 -25 -57 -39t-70 -14q-42 0 -78.5 15.5t-63.5 42.5t-42.5 62.5
t-15.5 76.5q0 40 15.5 76t42.5 62.5t63.5 42t78.5 15.5q31 0 59.5 -12.5t51 -34.5t39.5 -52.5t26 -66.5zM261 520q0 23 16 38t36 15q19 0 35 -15t16 -38t-16 -37.5t-35 -14.5q-20 0 -36 14.5t-16 37.5zM95 520q0 23 16 38t36 15q19 0 35 -15t16 -38t-16 -37.5t-35 -14.5
q-20 0 -36 14.5t-16 37.5z" />
    <glyph glyph-name="igrave" unicode="&#xec;" horiz-adv-x="174" 
d="M141 0h-83v375h83v-375zM27 612q23 -33 45 -66.5t45 -66.5h-59q-29 33 -57.5 66.5t-57.5 66.5h84z" />
    <glyph glyph-name="iacute" unicode="&#xed;" horiz-adv-x="194" 
d="M141 0h-83v375h83v-375zM82 479q23 33 45 66.5t45 66.5h84q-29 -33 -57.5 -66.5t-57.5 -66.5h-59z" />
    <glyph glyph-name="icircumflex" unicode="&#xee;" horiz-adv-x="239" 
d="M158 0h-83v375h83v-375zM116 660q30 -45 60 -90.5t60 -90.5h-59q-15 18 -30.5 36t-30.5 36q-15 -18 -30.5 -36t-30.5 -36h-59q30 45 60 90.5t60 90.5z" />
    <glyph glyph-name="idieresis" unicode="&#xef;" horiz-adv-x="271" 
d="M182 0h-83v375h83v-375zM172 520q0 23 16 38t36 15q19 0 35 -15t16 -38t-16 -37.5t-35 -14.5q-20 0 -36 14.5t-16 37.5zM6 520q0 23 16 38t36 15q19 0 35 -15t16 -38t-16 -37.5t-35 -14.5q-20 0 -36 14.5t-16 37.5z" />
    <glyph glyph-name="eth" unicode="&#xf0;" horiz-adv-x="493" 
d="M136 188q0 -25 9.5 -46t25 -36t37.5 -23.5t48 -7.5t47 10.5t36 25.5t23 37.5t8 45.5q-1 25 -10.5 46t-25 36t-37.5 23t-47 7q-53 -2 -84.5 -35t-29.5 -83zM131 531l28 30l28 30q-44 51 -92 92q15 14 30.5 27.5t30.5 27.5q45 -35 90 -83q11 13 22.5 25t22.5 25
q14 -13 29 -25.5t29 -25.5q-14 -15 -27 -29.5t-27 -29.5q31 -41 59.5 -90t50.5 -101t35 -105t13 -102q1 -41 -13.5 -77t-40.5 -63.5t-62 -44.5t-78 -18t-79 13.5t-65 40.5t-45 61t-18 76q-1 40 13.5 76.5t41 63.5t62.5 43.5t78 17.5q32 1 64 -8q-13 40 -32.5 77.5
t-43.5 72.5q-11 -13 -23 -25t-23 -25q-14 14 -29 26.5t-29 26.5z" />
    <glyph glyph-name="ntilde" unicode="&#xf1;" horiz-adv-x="523" 
d="M82 375h73v-9q2 -24 3.5 -43.5t3.5 -43.5q20 48 64.5 76.5t98.5 28.5q59 0 93 -31t36 -81v-272h-83v234q-2 27 -19.5 46.5t-55.5 21.5q-26 0 -49.5 -9t-41.5 -25t-29 -38t-11 -48v-182h-83v375zM277 475q-15 16 -26.5 21t-25.5 5t-32 -9t-21 -37l-45 3q1 20 10 36.5
t22 28t28.5 17.5t30.5 6q23 0 41.5 -9t35.5 -24q15 -16 26.5 -21t25.5 -5q7 0 15.5 2t16.5 7t13.5 14t7.5 23l45 -3q-1 -20 -10 -36.5t-22 -27.5t-28.5 -17t-30.5 -6q-23 0 -41.5 9t-35.5 23z" />
    <glyph glyph-name="ograve" unicode="&#xf2;" 
d="M36 188q0 40 15.5 76t42.5 62.5t63.5 42t78.5 15.5t79 -15.5t64 -42t42.5 -62.5t15.5 -76q0 -41 -15.5 -76.5t-42.5 -62.5t-64 -42.5t-79 -15.5t-78.5 15.5t-63.5 42.5t-42.5 62.5t-15.5 76.5zM119 187q0 -24 9 -45t24.5 -36.5t36.5 -24.5t45 -9t45 9t37 24.5t25 36.5
t9 45t-9 45t-25 37t-37 25t-45 9t-45 -9t-36.5 -25t-24.5 -37t-9 -45zM153 612q23 -33 45 -66.5t45 -66.5h-59q-29 33 -57.5 66.5t-57.5 66.5h84z" />
    <glyph glyph-name="oacute" unicode="&#xf3;" 
d="M36 188q0 40 15.5 76t42.5 62.5t63.5 42t78.5 15.5t79 -15.5t64 -42t42.5 -62.5t15.5 -76q0 -41 -15.5 -76.5t-42.5 -62.5t-64 -42.5t-79 -15.5t-78.5 15.5t-63.5 42.5t-42.5 62.5t-15.5 76.5zM119 187q0 -24 9 -45t24.5 -36.5t36.5 -24.5t45 -9t45 9t37 24.5t25 36.5
t9 45t-9 45t-25 37t-37 25t-45 9t-45 -9t-36.5 -25t-24.5 -37t-9 -45zM231 479q23 33 45 66.5t45 66.5h84q-29 -33 -57.5 -66.5t-57.5 -66.5h-59z" />
    <glyph glyph-name="ocircumflex" unicode="&#xf4;" 
d="M36 188q0 40 15.5 76t42.5 62.5t63.5 42t78.5 15.5t79 -15.5t64 -42t42.5 -62.5t15.5 -76q0 -41 -15.5 -76.5t-42.5 -62.5t-64 -42.5t-79 -15.5t-78.5 15.5t-63.5 42.5t-42.5 62.5t-15.5 76.5zM119 187q0 -24 9 -45t24.5 -36.5t36.5 -24.5t45 -9t45 9t37 24.5t25 36.5
t9 45t-9 45t-25 37t-37 25t-45 9t-45 -9t-36.5 -25t-24.5 -37t-9 -45zM232 660q30 -45 60 -90.5t60 -90.5h-59q-15 18 -30.5 36t-30.5 36q-15 -18 -30.5 -36t-30.5 -36h-59q30 45 60 90.5t60 90.5z" />
    <glyph glyph-name="otilde" unicode="&#xf5;" 
d="M36 188q0 40 15.5 76t42.5 62.5t63.5 42t78.5 15.5t79 -15.5t64 -42t42.5 -62.5t15.5 -76q0 -41 -15.5 -76.5t-42.5 -62.5t-64 -42.5t-79 -15.5t-78.5 15.5t-63.5 42.5t-42.5 62.5t-15.5 76.5zM119 187q0 -24 9 -45t24.5 -36.5t36.5 -24.5t45 -9t45 9t37 24.5t25 36.5
t9 45t-9 45t-25 37t-37 25t-45 9t-45 -9t-36.5 -25t-24.5 -37t-9 -45zM231 481q-15 16 -26.5 21t-25.5 5t-32 -9t-21 -37l-45 3q1 20 10 36.5t22 28t28.5 17.5t30.5 6q23 0 41.5 -9t35.5 -24q15 -16 26.5 -21t25.5 -5q7 0 15.5 2t16.5 7t13.5 14t7.5 23l45 -3
q-1 -20 -10 -36.5t-22 -27.5t-28.5 -17t-30.5 -6q-23 0 -41.5 9t-35.5 23z" />
    <glyph glyph-name="odieresis" unicode="&#xf6;" 
d="M36 188q0 40 15.5 76t42.5 62.5t63.5 42t78.5 15.5t79 -15.5t64 -42t42.5 -62.5t15.5 -76q0 -41 -15.5 -76.5t-42.5 -62.5t-64 -42.5t-79 -15.5t-78.5 15.5t-63.5 42.5t-42.5 62.5t-15.5 76.5zM119 187q0 -24 9 -45t24.5 -36.5t36.5 -24.5t45 -9t45 9t37 24.5t25 36.5
t9 45t-9 45t-25 37t-37 25t-45 9t-45 -9t-36.5 -25t-24.5 -37t-9 -45zM267 520q0 23 16 38t36 15q19 0 35 -15t16 -38t-16 -37.5t-35 -14.5q-20 0 -36 14.5t-16 37.5zM101 520q0 23 16 38t36 15q19 0 35 -15t16 -38t-16 -37.5t-35 -14.5q-20 0 -36 14.5t-16 37.5z" />
    <glyph glyph-name="divide" unicode="&#xf7;" horiz-adv-x="501" 
d="M428 206h-360v81h360v-81zM199 373q0 23 16 38t36 15q19 0 35 -15t16 -38t-16 -37.5t-35 -14.5q-20 0 -36 14.5t-16 37.5zM199 123q0 23 16 38t36 15q19 0 35 -15t16 -38t-16 -37.5t-35 -14.5q-20 0 -36 14.5t-16 37.5z" />
    <glyph glyph-name="oslash" unicode="&#xf8;" 
d="M119 188q0 -35 17 -63q37 43 73 85t73 85q-22 8 -46 8q-52 0 -84.5 -32.5t-32.5 -82.5zM236 72q52 0 84.5 33.5t32.5 82.5q0 20 -6 38.5t-17 32.5l-150 -174q26 -13 56 -13zM36 188q0 40 15.5 76t42.5 62.5t63.5 42t78.5 15.5q56 0 100 -26q9 11 18.5 21.5t18.5 21.5
q11 -10 22.5 -20t22.5 -20q-8 -10 -17 -20t-17 -20q25 -26 39 -60.5t14 -72.5q0 -41 -15.5 -76.5t-42.5 -62.5t-64 -42.5t-79 -15.5q-31 0 -58.5 8.5t-50.5 23.5q-11 -12 -21 -24.5t-21 -24.5q-11 10 -23 19t-23 19q11 13 21.5 25t21.5 25q-22 26 -34 58t-12 68z" />
    <glyph glyph-name="ugrave" unicode="&#xf9;" horiz-adv-x="529" 
d="M454 -9h-83v60l3 45q-20 -48 -64.5 -76.5t-98.5 -28.5q-59 0 -93 31t-36 81v272h83v-234q2 -27 19.5 -46.5t55.5 -21.5q26 0 49.5 9t41.5 25t29 38t11 48v182h83v-384zM210 612q23 -33 45 -66.5t45 -66.5h-59q-29 33 -57.5 66.5t-57.5 66.5h84z" />
    <glyph glyph-name="uacute" unicode="&#xfa;" horiz-adv-x="529" 
d="M454 -9h-83v60l3 45q-20 -48 -64.5 -76.5t-98.5 -28.5q-59 0 -93 31t-36 81v272h83v-234q2 -27 19.5 -46.5t55.5 -21.5q26 0 49.5 9t41.5 25t29 38t11 48v182h83v-384zM231 479q23 33 45 66.5t45 66.5h84q-29 -33 -57.5 -66.5t-57.5 -66.5h-59z" />
    <glyph glyph-name="ucircumflex" unicode="&#xfb;" horiz-adv-x="529" 
d="M454 -9h-83v60l3 45q-20 -48 -64.5 -76.5t-98.5 -28.5q-59 0 -93 31t-36 81v272h83v-234q2 -27 19.5 -46.5t55.5 -21.5q26 0 49.5 9t41.5 25t29 38t11 48v182h83v-384zM266 660q30 -45 60 -90.5t60 -90.5h-59q-15 18 -30.5 36t-30.5 36q-15 -18 -30.5 -36t-30.5 -36h-59
q30 45 60 90.5t60 90.5z" />
    <glyph glyph-name="udieresis" unicode="&#xfc;" horiz-adv-x="529" 
d="M454 -9h-83v60l3 45q-20 -48 -64.5 -76.5t-98.5 -28.5q-59 0 -93 31t-36 81v272h83v-234q2 -27 19.5 -46.5t55.5 -21.5q26 0 49.5 9t41.5 25t29 38t11 48v182h83v-384zM294 520q0 23 16 38t36 15q19 0 35 -15t16 -38t-16 -37.5t-35 -14.5q-20 0 -36 14.5t-16 37.5z
M128 520q0 23 16 38t36 15q19 0 35 -15t16 -38t-16 -37.5t-35 -14.5q-20 0 -36 14.5t-16 37.5z" />
    <glyph glyph-name="yacute" unicode="&#xfd;" horiz-adv-x="488" 
d="M172 -250h-83q32 63 63 125t63 125l-189 375h83q37 -73 79.5 -148.5t68.5 -152.5q13 38 30.5 76.5t37.5 76t40.5 75t38.5 73.5h83q-79 -157 -157.5 -312.5t-157.5 -312.5zM241 479q23 33 45 66.5t45 66.5h84q-29 -33 -57.5 -66.5t-57.5 -66.5h-59z" />
    <glyph glyph-name="thorn" unicode="&#xfe;" horiz-adv-x="557" 
d="M384 188q0 50 -32.5 82.5t-84.5 32.5t-84.5 -32.5t-32.5 -82.5q0 -49 32.5 -82.5t84.5 -33.5t84.5 33.5t32.5 82.5zM468 187q0 -40 -15.5 -75.5t-42.5 -62.5t-64 -42.5t-79 -15.5q-30 0 -53.5 7t-39.5 15.5t-25 16.5t-9 11q2 -5 5 -11t5 -11v-269h-83v1000h83v-390
q-2 -8 -5 -16t-5 -16q0 3 10 11.5t27 18t40 17t50 7.5q42 0 79 -15.5t64 -42.5t42.5 -62.5t15.5 -74.5z" />
    <glyph glyph-name="ydieresis" unicode="&#xff;" horiz-adv-x="488" 
d="M172 -250h-83q32 63 63 125t63 125l-189 375h83q37 -73 79.5 -148.5t68.5 -152.5q13 38 30.5 76.5t37.5 76t40.5 75t38.5 73.5h83q-79 -157 -157.5 -312.5t-157.5 -312.5zM286 520q0 23 16 38t36 15q19 0 35 -15t16 -38t-16 -37.5t-35 -14.5q-20 0 -36 14.5t-16 37.5z
M120 520q0 23 16 38t36 15q19 0 35 -15t16 -38t-16 -37.5t-35 -14.5q-20 0 -36 14.5t-16 37.5z" />
    <glyph glyph-name="endash" unicode="&#x2013;" horiz-adv-x="509" 
d="M100 174v81h301v-81h-301z" />
    <glyph glyph-name="emdash" unicode="&#x2014;" horiz-adv-x="700" 
d="M99 174v81h502v-81h-502z" />
    <glyph glyph-name="quoteleft" unicode="&#x2018;" horiz-adv-x="164" 
d="M116 590q-11 -6 -20.5 -12t-20.5 -12q-28 28 -40 65.5t-4 79.5q13 -2 26 -3.5t26 -3.5q-7 -35 2.5 -64.5t30.5 -49.5z" />
    <glyph glyph-name="quoteright" unicode="&#x2019;" horiz-adv-x="164" 
d="M76 566q-11 6 -20.5 12t-20.5 12q21 20 30.5 49.5t2.5 64.5q13 2 26 3.5t26 3.5q8 -42 -4 -79.5t-40 -65.5z" />
    <glyph glyph-name="quotesinglbase" unicode="&#x201a;" horiz-adv-x="146" 
d="M60 -53q-11 6 -20.5 12t-20.5 12q21 20 30.5 49.5t2.5 64.5q13 2 26 3.5t26 3.5q8 -42 -4 -79.5t-40 -65.5z" />
    <glyph glyph-name="quotedblleft" unicode="&#x201c;" horiz-adv-x="249" 
d="M220 590q-11 -6 -20.5 -12t-20.5 -12q-28 28 -40 65.5t-4 79.5q13 -2 26 -3.5t26 -3.5q-7 -35 2.5 -64.5t30.5 -49.5zM116 590q-11 -6 -20.5 -12t-20.5 -12q-28 28 -40 65.5t-4 79.5q13 -2 26 -3.5t26 -3.5q-7 -35 2.5 -64.5t30.5 -49.5z" />
    <glyph glyph-name="quotedblright" unicode="&#x201d;" horiz-adv-x="248" 
d="M52 566q-11 6 -20.5 12t-20.5 12q21 20 30.5 49.5t2.5 64.5q13 2 26 3.5t26 3.5q8 -42 -4 -79.5t-40 -65.5zM156 566q-11 6 -20.5 12t-20.5 12q21 20 30.5 49.5t2.5 64.5q13 2 26 3.5t26 3.5q8 -42 -4 -79.5t-40 -65.5z" />
    <glyph glyph-name="quotedblbase" unicode="&#x201e;" horiz-adv-x="341" 
d="M60 -53q-11 6 -20.5 12t-20.5 12q21 20 30.5 49.5t2.5 64.5q13 2 26 3.5t26 3.5q8 -42 -4 -79.5t-40 -65.5zM164 -53q-11 6 -20.5 12t-20.5 12q21 20 30.5 49.5t2.5 64.5q13 2 26 3.5t26 3.5q8 -42 -4 -79.5t-40 -65.5z" />
    <glyph glyph-name="bullet" unicode="&#x2022;" horiz-adv-x="479" 
d="M113 300q0 27 10 50t27 40.5t40 27.5t49 10q27 0 50 -10t40.5 -27.5t27.5 -40.5t10 -50t-10 -50t-27.5 -40t-40.5 -26.5t-50 -9.5q-26 0 -49 9.5t-40 26.5t-27 40t-10 50z" />
    <glyph glyph-name="guilsinglleft" unicode="&#x2039;" horiz-adv-x="392" 
d="M288 77l-171 162q43 41 85.5 80.5t85.5 80.5v-95q-17 -17 -32.5 -33t-32.5 -33q17 -17 32.5 -33.5t32.5 -33.5v-95z" />
    <glyph glyph-name="guilsinglright" unicode="&#x203a;" horiz-adv-x="392" 
d="M117.018 77l170.989 162q-42.9971 41 -85.4941 80.5q-42.498 39.5 -85.4951 80.5v-95q16.999 -17 32.498 -33t32.498 -33q-16.999 -17 -32.498 -33.5t-32.498 -33.5v-95z" />
    </font>
</defs>
</svg>
