<?xml version="1.0" standalone="no"?>
<!DOCTYPE svg PUBLIC "-//W3C//DTD SVG 1.1//EN" "http://www.w3.org/Graphics/SVG/1.1/DTD/svg11.dtd" >
<svg xmlns="http://www.w3.org/2000/svg" xmlns:xlink="http://www.w3.org/1999/xlink" version="1.1">
<metadata>
Created by FontForge 20170731 at Wed Apr  8 16:30:25 2020
 By Aleksey,,,
Copyright (c) 2020 by Alfredo Marco Pradil. All rights reserved.
</metadata>
<defs>
<font id="OpenSauceSans-Light" horiz-adv-x="0" >
  <font-face 
    font-family="Open Sauce Sans Light"
    font-weight="300"
    font-stretch="normal"
    units-per-em="1000"
    panose-1="0 0 4 0 0 0 0 0 0 0"
    ascent="763"
    descent="-237"
    x-height="549"
    cap-height="763"
    bbox="-694 -237 1195 1019"
    underline-thickness="50"
    underline-position="-150"
    unicode-range="U+0020-FB02"
  />
<missing-glyph horiz-adv-x="618" 
d="M79 0v549h460v-549h-460zM119 40h380v469h-380v-469z" />
    <glyph glyph-name="fi" unicode="fi" horiz-adv-x="552" 
d="M118 491h-92v58h92v62q0 152 138 152h66v-58h-52q-43 0 -65 -18.5t-22 -68.5q0 -34 -1.5 -47t-8.5 -22l10 -10q10 7 21.5 8.5t34.5 1.5h83v-58h-139v-491h-65v491zM415 0v549h65v-549h-65zM413.5 690.5q-14.5 14.5 -14.5 34.5t14.5 34t34.5 14t34.5 -14t14.5 -34
t-14.5 -34.5t-34.5 -14.5t-34.5 14.5z" />
    <glyph glyph-name="fl" unicode="fl" horiz-adv-x="606" 
d="M118 491h-92v58h92v62q0 152 138 152h66v-58h-52q-43 0 -65 -18.5t-22 -68.5q0 -34 -1.5 -47t-8.5 -22l10 -10q10 7 21.5 8.5t34.5 1.5h83v-58h-139v-491h-65v491zM439.5 28q-27.5 28 -27.5 100v635h65v-625q0 -44 11.5 -62t51.5 -18h36v-58h-50q-59 0 -86.5 28z" />
    <glyph glyph-name="s_a_u_c_e_l_o_g_o.liga" unicode="saucelogo" horiz-adv-x="921" 
d="M79 10v743q0 10 9 10h744q10 0 10 -10v-743q0 -10 -10 -10h-744q-9 0 -9 10zM255 94q11 11 17 22.5t14 31.5q13 36 33 69t67 82l25 26q4 4 8 4t9 -3q7 -4 17 -6q10 -3 10 -13v-36q0 -43 -5.5 -67t-15.5 -47q-10 -20 -10 -37q0 -14 11 -25t25 -11q15 0 26 11t11 25
q0 17 -10 37q-10 23 -15.5 47t-5.5 67v36q0 10 10 13q13 4 15 6q5 3 8 3q5 0 9 -4l26 -26q48 -48 68 -81.5t33 -69.5q6 -19 12 -30.5t18 -23.5q17 -15 40 -15q26 0 41 15q17 17 17 42t-16 40q-12 12 -23.5 18t-30.5 12q-37 13 -70 32.5t-81 67.5l-26 26q-4 4 -4 9q0 3 3 7
q6 12 7 18q3 11 12 11h36q44 0 68.5 -6t46.5 -16q2 -1 13 -5.5t24 -4.5q14 0 25 11t11 26q0 14 -11 25.5t-25 11.5q-13 0 -24 -4.5t-13 -5.5q-22 -10 -46.5 -16t-68.5 -6h-36q-9 0 -12 11q-4 10 -7 15t-3 8q0 4 4 8l26 26q48 48 82 68.5t69 31.5q4 2 16 6.5t21 10t16 13.5
q17 19 17 41q0 24 -17 41q-16 16 -41 16t-40 -15q-11 -11 -17 -22.5t-14 -32.5q-13 -37 -32.5 -70t-67.5 -81l-25 -24q-3 -4 -9 -4q-4 0 -7 2q-5 3 -17 7q-10 3 -10 13v36q0 43 5.5 67t15.5 47q10 20 10 37q0 14 -11 25t-25 11q-15 0 -26 -11t-11 -25q0 -17 10 -37
q10 -23 15.5 -47t5.5 -67v-36q0 -10 -10 -13q-2 -1 -7.5 -2.5t-9.5 -4.5q-3 -2 -7 -2q-6 0 -10 4l-25 24q-49 49 -69.5 83t-31.5 69q-7 19 -13 31t-17 23q-16 16 -40 16q-22 0 -40 -16q-17 -17 -17 -42t16 -41q11 -11 22.5 -17t30.5 -13q36 -13 69 -33t82 -67l26 -25
q4 -4 4 -8q0 -3 -3 -8q-2 -3 -7 -16q-3 -11 -12 -11h-36q-44 0 -68.5 6t-46.5 16q-2 1 -13 5.5t-24 4.5q-14 0 -25 -11.5t-11 -25.5q0 -15 11 -26t25 -11q13 0 24 4.5t13 5.5q22 10 46.5 16t68.5 6h36q9 0 12 -11q5 -12 8 -17q2 -6 2 -7q0 -5 -4 -9l-26 -27
q-48 -49 -81.5 -68.5t-69.5 -31.5q-20 -7 -31.5 -13t-22.5 -17q-16 -15 -16 -40q0 -24 16 -41q16 -16 42 -16q25 0 40 15zM422 343.5q-16 16.5 -16 38.5t16 38t38 16t38 -16t16 -38q0 -23 -16 -39t-38 -16t-38 16.5zM492 354l-6 6q-10 -13 -26 -13q-14 0 -24 10.5t-10 24.5
t10.5 24t23.5 10q16 0 27 -13l5 6q-10 15 -32 15q-17 0 -30 -12.5t-13 -29.5t13 -30t30 -13q22 0 32 15z" />
    <glyph glyph-name=".notdef" horiz-adv-x="618" 
d="M79 0v549h460v-549h-460zM119 40h380v469h-380v-469z" />
    <glyph glyph-name=".null" 
 />
    <glyph glyph-name="nonmarkingreturn" horiz-adv-x="333" 
 />
    <glyph glyph-name="space" unicode=" " horiz-adv-x="280" 
 />
    <glyph glyph-name="exclam" unicode="!" horiz-adv-x="235" 
d="M88 299q-3 150 -3 174v290h65v-290q0 -94 -4 -218l-1 -42h-55q0 26 -2 86zM82 5q-15 15 -15 36q0 20 15 34.5t36 14.5q20 0 34.5 -14.5t14.5 -34.5q0 -21 -14.5 -36t-34.5 -15q-21 0 -36 15z" />
    <glyph glyph-name="quotedbl" unicode="&#x22;" horiz-adv-x="305" 
d="M46 521v242h45v-242h-45zM212 521v242h46v-242h-46z" />
    <glyph glyph-name="numbersign" unicode="#" horiz-adv-x="745" 
d="M139 0l49 233h-136v46h146l45 220h-144v47h154l47 217h51l-47 -219h200l46 219h51l-47 -219h139v-45h-149l-46 -220h149v-46h-158l-48 -233h-52l49 233h-201l-46 -233h-52zM249 279h200l45 220h-200z" />
    <glyph glyph-name="dollar" unicode="$" horiz-adv-x="653" 
d="M130.5 53q-68.5 50 -87.5 163h70q15 -91 94 -133q10 -6 35 -17q41 -18 64 -32l11 10q-7 37 -8.5 65t-1.5 64v201q-71 16 -120.5 37.5t-81.5 61t-32 101.5q0 89 63.5 142.5t170.5 55.5v124h60v-126q84 -15 140.5 -66.5t71.5 -141.5h-66q-11 57 -50 96q-14 14 -34.5 28
t-24.5 16l-36 24l-11 -9q7 -29 8.5 -48t1.5 -42v-201q75 -17 123.5 -37.5t81 -62.5t32.5 -113q0 -96 -61 -154t-176 -65v-136h-60v136q-108 9 -176.5 59zM308.5 483q-1.5 21 -1.5 47v102q0 24 1.5 43.5t8.5 48.5l-11 9q-18 -10 -66 -31q-17 -7 -34 -15q-31 -18 -47.5 -45.5
t-16.5 -62.5q0 -41 21.5 -67.5t61.5 -45.5q4 -1 18.5 -7t30.5 -15.5t32 -21.5l11 9q-7 31 -8.5 52zM426 62q31 13 42 21q33 20 50 52.5t17 74.5q0 43 -17.5 71t-50.5 46l-26 12q-48 22 -73 38l-11 -8q7 -35 8.5 -59t1.5 -56v-83q0 -36 -1.5 -63.5t-8.5 -64.5l11 -10z" />
    <glyph glyph-name="percent" unicode="%" horiz-adv-x="784" 
d="M119 452.5q-33 24.5 -50 64t-17 84.5q0 44 16.5 83.5t49 64t77.5 24.5q41 0 74 -22.5t51.5 -62t18.5 -87.5q0 -49 -18.5 -88.5t-50.5 -62t-72 -22.5q-46 0 -79 24.5zM147 0l432 763h62l-431 -763h-63zM262 514.5q25 33.5 25 86.5q0 50 -25 85t-67 35q-44 0 -67.5 -36
t-23.5 -84q0 -50 24 -85t70 -35q39 0 64 33.5zM512 14.5q-33 24.5 -50 64t-17 83.5t16.5 83.5t49 64t77.5 24.5q41 0 73.5 -22.5t51.5 -62t19 -88.5t-18.5 -88t-50.5 -61t-72 -22q-46 0 -79 24.5zM654.5 75.5q25.5 33.5 25.5 85.5q0 51 -24.5 86t-67.5 35q-44 0 -67 -35
t-23 -85t23.5 -85t69.5 -35q38 0 63.5 33.5z" />
    <glyph glyph-name="ampersand" unicode="&#x26;" horiz-adv-x="708" 
d="M121.5 39.5q-65.5 49.5 -65.5 137.5q0 50 21.5 88.5t61.5 70.5q48 39 117 60l3 14q-16 4 -31 17.5t-37 37.5q-49 56 -49 123q0 57 26 99t71 64t100 22q51 0 93.5 -21.5t67 -61t24.5 -90.5q0 -55 -38.5 -102t-91.5 -77q-39 -23 -63 -20l-3 -14q22 -14 35 -26t25 -27
l79 -96q16 -20 27 -39t22 -52l14 1q-1 9 3.5 22t11.5 27q16 37 27.5 77t16.5 99h65q-14 -147 -91 -254l98 -119h-83q-24 29 -37.5 49.5t-16.5 45.5l-14 1q-7 -33 -28.5 -50t-55.5 -31q-66 -25 -136 -25q-103 0 -168.5 49.5zM419 508q40 37 40 89q0 50 -33.5 84t-86.5 34
q-57 0 -94.5 -33.5t-37.5 -86.5q0 -34 10 -59t25 -43t42 -44l18 -17q77 39 117 76zM481 119l-199 241q-78 -40 -119.5 -80t-41.5 -100q0 -63 46.5 -97.5t123.5 -34.5q111 0 190 71z" />
    <glyph glyph-name="quotesingle" unicode="'" horiz-adv-x="137" 
d="M46 521v242h45v-242h-45z" />
    <glyph glyph-name="parenleft" unicode="(" horiz-adv-x="274" 
d="M91.5 119q-31.5 120 -31.5 261q0 142 31.5 261.5t94.5 230.5h58q-70 -119 -102 -238.5t-32 -253.5t32 -253.5t102 -238.5h-58q-63 111 -94.5 231z" />
    <glyph glyph-name="parenright" unicode=")" horiz-adv-x="274" 
d="M132 126.5q32 119.5 32 253.5t-32 253.5t-102 238.5h58q63 -111 94.5 -230.5t31.5 -261.5q0 -141 -31.5 -261t-94.5 -231h-58q70 119 102 238.5z" />
    <glyph glyph-name="asterisk" unicode="*" horiz-adv-x="409" 
d="M185 595l-4 13q-14 -1 -38 -1q-47 0 -103 9l23 71q65 -30 121 -62l11 8q-10 33 -15 58t-12 72h73q-7 -47 -12 -72t-15 -58l11 -8q56 32 121 62l23 -71q-56 -9 -103 -9q-24 0 -38 1l-4 -13q49 -42 105 -107l-61 -42q-37 78 -57 141h-14q-23 -69 -59 -141l-58 42
q56 65 105 107z" />
    <glyph glyph-name="plus" unicode="+" horiz-adv-x="634" 
d="M288 62v247h-248v58h248v247h58v-247h247v-58h-247v-247h-58z" />
    <glyph glyph-name="comma" unicode="," horiz-adv-x="313" 
d="M161 -97q23 30 23 76q0 9 -2 29h-12q-9 -18 -31 -18q-21 0 -35 13.5t-14 35.5t15 36.5t40 14.5q36 0 57 -29t21 -77q0 -57 -31.5 -101t-98.5 -54v36q45 8 68 38z" />
    <glyph glyph-name="hyphen" unicode="-" horiz-adv-x="336" 
d="M24 310v56h288v-56h-288z" />
    <glyph glyph-name="period" unicode="." horiz-adv-x="280" 
d="M105 5q-15 15 -15 36q0 20 15.5 34.5t36.5 14.5q19 0 33.5 -14.5t14.5 -34.5q0 -21 -14 -36t-34 -15q-22 0 -37 15z" />
    <glyph glyph-name="slash" unicode="/" horiz-adv-x="437" 
d="M60 -111h-60l343 874h59z" />
    <glyph glyph-name="zero" unicode="0" horiz-adv-x="651" 
d="M136.5 90q-68.5 100 -68.5 293t67.5 291.5t190.5 98.5q122 0 189.5 -99t67.5 -291q0 -193 -68 -293t-189 -100t-189.5 100zM465.5 129.5q48.5 77.5 48.5 252.5q0 174 -48 251.5t-140 77.5q-93 0 -141 -77.5t-48 -251.5q0 -175 48.5 -252.5t140.5 -77.5q91 0 139.5 77.5z
" />
    <glyph glyph-name="one" unicode="1" horiz-adv-x="424" 
d="M277 643.5q2 15.5 8 38.5l-12 5q-14 -20 -23.5 -30t-23.5 -22q-86 -68 -185 -84v66q82 16 141 55t95 91h67v-763h-69v597q0 31 2 46.5z" />
    <glyph glyph-name="two" unicode="2" horiz-adv-x="642" 
d="M56 68l246 200q92 74 138 139.5t46 142.5q0 72 -43.5 116.5t-115.5 44.5q-86 0 -130.5 -50t-48.5 -147h-69q3 123 69 191t178 68q66 0 118 -28t81.5 -78.5t29.5 -115.5q0 -92 -54 -168.5t-157 -161.5l-146 -120q-26 -22 -57 -41l4 -12q29 8 43.5 11t32.5 3h366v-62h-531
v68z" />
    <glyph glyph-name="three" unicode="3" horiz-adv-x="648" 
d="M186.5 19.5q-59.5 29.5 -93.5 82.5t-36 123h69q5 -80 56.5 -126.5t141.5 -46.5q89 0 140.5 44.5t51.5 120.5q0 83 -63 118.5t-156 35.5h-45v62h43q74 0 128.5 31.5t54.5 106.5q0 62 -45 101t-116 39t-117.5 -38.5t-51.5 -108.5h-69q2 61 33.5 108.5t85 74t119.5 26.5
q64 0 117 -25.5t83 -70t30 -100.5q0 -48 -22 -85t-59 -57t-82 -20v-14q56 0 101.5 -22t72.5 -64.5t27 -99.5q0 -66 -33 -117t-92 -79.5t-136 -28.5q-78 0 -137.5 29.5z" />
    <glyph glyph-name="four" unicode="4" horiz-adv-x="650" 
d="M416 0v183h-370v73l364 507h75v-518h119v-62h-119v-183h-69zM145.5 242.5q15.5 2.5 34.5 2.5h236v337q0 23 1.5 41t8.5 47l-12 4q-20 -34 -47 -72l-214 -301q-2 -3 -14 -19.5t-41 -39.5l6 -12q26 10 41.5 12.5z" />
    <glyph glyph-name="five" unicode="5" horiz-adv-x="641" 
d="M466.5 478.5q54.5 -32.5 83.5 -89t29 -124.5q0 -81 -31.5 -143.5t-90.5 -97t-138 -34.5q-106 0 -173 61.5t-86 165.5h69q13 -78 61.5 -121.5t126.5 -43.5q91 0 142 58t51 154q0 81 -48 133t-135 52q-52 0 -96.5 -26t-72.5 -73h-82l74 413h393v-62h-337l-34 -192
q-5 -30 -20 -76l11 -6q64 84 177 84q72 0 126.5 -32.5z" />
    <glyph glyph-name="six" unicode="6" horiz-adv-x="644" 
d="M132 94q-65 104 -65 276q0 178 65 290.5t202 112.5q102 0 165 -53t78 -145h-69q-30 136 -174 136q-86 0 -136 -68t-60 -179q-1 -8 -1.5 -24t-3.5 -33t-11 -36l13 -6q41 70 92 96t115 26q70 0 123.5 -31t82.5 -86.5t29 -125.5q0 -71 -30.5 -129t-85.5 -91.5t-126 -33.5
q-138 0 -203 104zM426.5 77.5q39.5 25.5 60.5 69.5t21 98q0 52 -21 95t-59.5 68.5t-88.5 25.5q-53 0 -97 -25.5t-69 -69t-25 -94.5q0 -56 24.5 -100t67 -68.5t94.5 -24.5q53 0 92.5 25.5z" />
    <glyph glyph-name="seven" unicode="7" horiz-adv-x="614" 
d="M486 669q14 17 33 39l-7 12q-51 -19 -81 -19h-395v62h535v-63l-369 -700h-77l341 640q6 12 20 29z" />
    <glyph glyph-name="eight" unicode="8" horiz-adv-x="630" 
d="M184 18.5q-57 28.5 -88.5 80t-31.5 118.5q0 68 40.5 123t113.5 71v10q-58 11 -90.5 57.5t-32.5 106.5q0 55 28 97.5t78.5 66.5t116.5 24q64 0 113 -24.5t76 -68.5t27 -101q0 -55 -30.5 -100t-88.5 -58v-10q72 -16 111.5 -71t39.5 -123q0 -67 -31 -118.5t-88 -80
t-131 -28.5q-75 0 -132 28.5zM426 476q39 36 39 98q0 63 -39.5 100t-107.5 37q-72 0 -113 -36t-41 -96q0 -64 41 -101.5t113 -37.5q69 0 108 36zM449 97.5q48 45.5 48 122.5t-48 121.5t-132 44.5q-85 0 -134.5 -44.5t-49.5 -121.5t49.5 -122.5t134.5 -45.5q84 0 132 45.5z
" />
    <glyph glyph-name="nine" unicode="9" horiz-adv-x="644" 
d="M512 669q65 -104 65 -276q0 -178 -65 -290.5t-202 -112.5q-102 0 -165 53t-78 145h69q30 -136 174 -136q86 0 136 68t60 179q1 8 1.5 24t3.5 33t11 36l-13 6q-41 -70 -92 -96t-115 -26q-70 0 -123.5 31t-82.5 86.5t-29 125.5q0 71 30.5 129t85.5 91.5t126 33.5
q138 0 203 -104zM217.5 685.5q-39.5 -25.5 -60.5 -69.5t-21 -98q0 -52 21 -95t59.5 -68.5t88.5 -25.5q53 0 97 25.5t69 69t25 94.5q0 56 -24.5 100t-67 68.5t-94.5 24.5q-53 0 -92.5 -25.5z" />
    <glyph glyph-name="colon" unicode=":" horiz-adv-x="185" 
d="M57 441q-15 15 -15 36q0 20 15 35t36 15q20 0 34.5 -15t14.5 -35t-14.5 -35.5t-34.5 -15.5q-21 0 -36 15zM57 5q-15 15 -15 36q0 20 15 34.5t36 14.5q20 0 34.5 -14.5t14.5 -34.5q0 -21 -14.5 -36t-34.5 -15q-21 0 -36 15z" />
    <glyph glyph-name="semicolon" unicode=";" horiz-adv-x="313" 
d="M105.5 441q-15.5 15 -15.5 36q0 20 15 35t36 15q20 0 34.5 -15t14.5 -35q0 -21 -14.5 -36t-34.5 -15t-35.5 15zM161 -97q23 30 23 76q0 9 -2 29h-12q-9 -18 -31 -18q-21 0 -35 13.5t-14 35.5t15 36.5t40 14.5q36 0 57 -29t21 -77q0 -57 -31.5 -101t-98.5 -54v36
q45 8 68 38z" />
    <glyph glyph-name="less" unicode="&#x3c;" horiz-adv-x="559" 
d="M44 300v74l467 178v-64l-344 -129q-27 -10 -70 -15v-14q43 -5 70 -15l344 -128v-64z" />
    <glyph glyph-name="equal" unicode="=" horiz-adv-x="499" 
d="M36 418v65h426v-65h-426zM36 204v66h426v-66h-426z" />
    <glyph glyph-name="greater" unicode="&#x3e;" horiz-adv-x="559" 
d="M48 187l344 128q27 10 70 15v14q-43 5 -70 15l-344 129v64l467 -178v-74l-467 -177v64z" />
    <glyph glyph-name="question" unicode="?" horiz-adv-x="538" 
d="M250.5 334q15.5 38 37.5 60.5t57 48.5q28 21 45 37t28 39.5t11 57.5q0 66 -43 103t-118 37t-120 -42t-49 -112h-57q4 96 65 153t157 57q100 0 162 -52.5t62 -146.5q0 -42 -13 -71.5t-31 -48t-50 -43.5q-32 -24 -51.5 -44t-33 -51.5t-13.5 -76.5v-28h-61v28q0 57 15.5 95z
M230 5q-15 15 -15 36q0 20 15 34.5t35 14.5t35 -14.5t15 -34.5q0 -21 -14.5 -36t-35.5 -15q-20 0 -35 15z" />
    <glyph glyph-name="at" unicode="@" horiz-adv-x="1055" 
d="M281.5 -132q-107.5 59 -169.5 165.5t-62 245.5q0 141 62 254.5t172 178t250 64.5q134 0 241.5 -61t168.5 -169t61 -245q0 -93 -29 -169.5t-85.5 -122t-134.5 -45.5q-56 0 -86.5 32t-30.5 91q0 27 8 64l-7 3q-29 -68 -80.5 -98t-111.5 -30q-79 0 -126 52.5t-47 146.5
q0 82 34.5 162t97.5 131.5t144 51.5q105 0 145 -107h11q-3 20 -3 33q0 19 6 45h57l-7 -35q-64 -292 -70 -376l-1 -20q0 -92 75 -92q57 0 98.5 38t63.5 102.5t22 141.5q0 122 -53 217t-147 148t-213 53q-124 0 -221.5 -57t-152 -157t-54.5 -225q0 -124 53.5 -217.5
t148.5 -144t214 -50.5q39 0 72.5 6t70.5 18v-60q-74 -22 -143 -22q-134 0 -241.5 59zM563.5 127q50.5 44 77.5 112t27 135q0 70 -30 104t-85 34q-67 0 -117 -43t-77 -109.5t-27 -134.5q0 -71 30.5 -106.5t85.5 -35.5q65 0 115.5 44z" />
    <glyph glyph-name="A" unicode="A" horiz-adv-x="688" 
d="M16 0l288 763h80l288 -763h-71l-77 206h-360l-77 -206h-71zM502 268l-126 339q-14 36 -19 53.5t-5 39.5h-16q0 -22 -5 -39.5t-19 -53.5l-126 -339h316z" />
    <glyph glyph-name="B" unicode="B" horiz-adv-x="677" 
d="M79 763h280q135 0 191 -68q38 -45 38 -122q0 -71 -34 -118.5t-88 -47.5v-16q74 0 117 -49t43 -131q0 -95 -60 -150q-36 -32 -87 -46.5t-108 -14.5h-292v763zM478.5 460.5q40.5 37.5 40.5 101.5t-38 99q-44 40 -136 40h-197v-278h221q69 0 109.5 37.5zM516 108
q41 39 41 107q0 84 -50.5 115t-115.5 31h-243v-299h216q104 0 152 46z" />
    <glyph glyph-name="C" unicode="C" horiz-adv-x="733" 
d="M204 43.5q-78 53.5 -116 142.5t-38 196t38 196t116 142t191 53q80 0 142.5 -27t102 -75t51.5 -110h-73q-15 69 -75.5 109.5t-149.5 40.5t-150.5 -42.5t-92.5 -117t-31 -169.5t31 -170t92.5 -117.5t150.5 -42.5q90 0 149.5 43t75.5 121h73q-19 -104 -97 -165t-199 -61
q-113 0 -191 53.5z" />
    <glyph glyph-name="D" unicode="D" horiz-adv-x="723" 
d="M79 763h204q188 0 288.5 -100t100.5 -285q0 -181 -101 -279.5t-289 -98.5h-203v763zM517.5 135.5q86.5 73.5 86.5 242.5q0 166 -84 244.5t-237 78.5h-135v-639h134q149 0 235.5 73.5z" />
    <glyph glyph-name="E" unicode="E" horiz-adv-x="609" 
d="M79 0v763h486v-62h-417v-287h366v-62h-366v-290h417v-62h-486z" />
    <glyph glyph-name="F" unicode="F" horiz-adv-x="594" 
d="M79 0v763h486v-62h-417v-287h366v-61h-366v-353h-69z" />
    <glyph glyph-name="G" unicode="G" horiz-adv-x="783" 
d="M206 44q-79 54 -117.5 143t-38.5 194q0 106 38.5 195t117.5 143t194 54q123 0 202.5 -58t105.5 -153h-77q-20 69 -80 109t-152 40q-93 0 -156 -45t-93.5 -119.5t-30.5 -163.5q0 -92 31.5 -167t95 -119.5t154.5 -44.5t156 51.5t87 140.5q2 7 3 14.5t2 13.5q6 47 16 57
l-11 11q-8 -7 -23.5 -8.5t-29 -1.5h-17.5h-119v62h256v-392h-64v147h-16q0 -30 -16.5 -53t-43.5 -45q-35 -28 -83.5 -43.5t-95.5 -15.5q-116 0 -195 54z" />
    <glyph glyph-name="H" unicode="H" horiz-adv-x="703" 
d="M79 0v763h69v-347h406v347h69v-763h-69v354h-406v-354h-69z" />
    <glyph glyph-name="I" unicode="I" horiz-adv-x="228" 
d="M79 0v763h69v-763h-69z" />
    <glyph glyph-name="J" unicode="J" horiz-adv-x="371" 
d="M16 62h96q59 0 86.5 28t27.5 86v587h69v-588q0 -87 -40 -131t-143 -44h-96v62z" />
    <glyph glyph-name="K" unicode="K" horiz-adv-x="612" 
d="M79 763h69v-357h16q0 14 10 27.5t25 28.5l293 301h85l-356 -366l378 -397h-92l-308 326q-11 12 -26 30t-24 32l-14 -10q9 -11 11 -19.5t2 -34.5v-324h-69v763z" />
    <glyph glyph-name="L" unicode="L" horiz-adv-x="513" 
d="M79 0v763h69v-701h350v-62h-419z" />
    <glyph glyph-name="M" unicode="M" horiz-adv-x="876" 
d="M79 763h111l221 -618q1 -4 6.5 -20.5t9 -36t3.5 -37.5h16q0 24 4.5 43.5t9 33t5.5 17.5l221 618h111v-763h-69v599q0 47 6 111l-16 2q-4 -44 -9 -67t-14 -46l-214 -599h-86l-214 599q-9 23 -14 46t-9 67l-16 -2q6 -64 6 -111v-599h-69v763z" />
    <glyph glyph-name="N" unicode="N" horiz-adv-x="704" 
d="M79 763h106l323 -609q25 -47 39 -93l15 3q-6 41 -6 89v610h68v-763h-106l-323 609q-13 24 -20.5 42t-15.5 46l-15 -3q4 -40 4 -85v-609h-69v763z" />
    <glyph glyph-name="O" unicode="O" horiz-adv-x="794" 
d="M206 43q-78 53 -117 142.5t-39 196.5t39 196t117 142t191 53t191 -53t117 -142t39 -196t-39 -196.5t-117 -142.5t-191 -53t-191 53zM548.5 95q62.5 43 94.5 117.5t32 169.5t-32 169.5t-94.5 117t-151.5 42.5t-151.5 -42.5t-94.5 -117t-32 -169.5t32 -169.5t94.5 -117.5
t151.5 -43t151.5 43z" />
    <glyph glyph-name="P" unicode="P" horiz-adv-x="620" 
d="M79 763h264q113 0 177.5 -55.5t64.5 -159.5q0 -102 -64.5 -159t-177.5 -57h-195v-332h-69v763zM469.5 432q47.5 40 47.5 114t-48 114.5t-135 40.5h-186v-309h186q88 0 135.5 40z" />
    <glyph glyph-name="Q" unicode="Q" horiz-adv-x="794" 
d="M585 1q-7 15 -11 40l-13 4q-22 -23 -55 -38q-43 -17 -109 -17q-113 0 -191 53t-117 142.5t-39 196.5t39 196t117 142t191 53q114 0 192 -53t116.5 -141.5t38.5 -196.5q0 -99 -31.5 -181.5t-93.5 -134.5l97 -153h-75l-36 54q-13 19 -20 34zM549.5 94.5q62.5 42.5 94 117.5
t31.5 170t-31.5 169.5t-94 117t-152.5 42.5q-89 0 -151.5 -42.5t-94.5 -117t-32 -169.5t32 -169.5t94.5 -117.5t151.5 -43q90 0 152.5 42.5z" />
    <glyph glyph-name="R" unicode="R" horiz-adv-x="639" 
d="M79 763h264q113 0 177.5 -55.5t64.5 -159.5q0 -115 -87 -177q-8 -6 -23 -10.5t-28 -4.5q-7 0 -10 1l-6 -13q13 -10 28 -43l133 -301h-74l-144 332h-226v-332h-69v763zM469.5 432q47.5 40 47.5 114t-48 114.5t-135 40.5h-186v-309h186q88 0 135.5 40z" />
    <glyph glyph-name="S" unicode="S" horiz-adv-x="653" 
d="M142 46q-81 56 -99 170h70q15 -87 79.5 -125.5t151.5 -38.5q91 0 141 42t50 116q0 54 -29 85t-72 46t-116 31q-81 17 -129.5 35t-82 57.5t-33.5 107.5q0 60 32 106t88.5 70.5t127.5 24.5q105 0 173 -51.5t85 -159.5h-66q-29 149 -193 149q-79 0 -128.5 -36.5t-49.5 -97.5
q0 -47 27 -74.5t67 -41.5t109 -29q83 -18 135 -37.5t88 -63t36 -118.5q0 -102 -69 -162.5t-196 -60.5q-116 0 -197 56z" />
    <glyph glyph-name="T" unicode="T" horiz-adv-x="634" 
d="M282 0v701h-268v62h606v-62h-269v-701h-69z" />
    <glyph glyph-name="U" unicode="U" horiz-adv-x="689" 
d="M139.5 63q-67.5 73 -67.5 207v493h69v-493q0 -218 203 -218t203 218v493h69v-493q0 -134 -67.5 -207t-204.5 -73t-204.5 73z" />
    <glyph glyph-name="V" unicode="V" horiz-adv-x="688" 
d="M16 763h71l225 -607q15 -41 19.5 -58t4.5 -35h16q0 18 4.5 35t19.5 58l225 607h71l-288 -763h-80z" />
    <glyph glyph-name="W" unicode="W" horiz-adv-x="1081" 
d="M22 763h73l179 -587q16 -51 16 -78h16q0 27 16 78l186 587h65l186 -587q16 -51 16 -78h16q0 27 16 78l180 587h72l-231 -763h-80l-175 549q-16 51 -24 103h-16q-5 -32 -10.5 -53t-14.5 -50l-175 -549h-81z" />
    <glyph glyph-name="X" unicode="X" horiz-adv-x="667" 
d="M287 385l-263 378h82l192 -280q12 -18 19.5 -31.5t7.5 -28.5h16q0 15 7.5 28.5t19.5 31.5l191 280h83l-263 -378l268 -385h-82l-188 269q-2 3 -13 17.5t-17.5 29.5t-6.5 28h-16q0 -16 -9 -32.5t-17.5 -28t-10.5 -14.5l-186 -269h-82z" />
    <glyph glyph-name="Y" unicode="Y" horiz-adv-x="662" 
d="M295 292l-287 471h80l212 -352q15 -24 19 -36.5t4 -34.5h16q0 21 4 33t19 38l212 352h80l-287 -471v-292h-72v292z" />
    <glyph glyph-name="Z" unicode="Z" horiz-adv-x="638" 
d="M29 54l457 601q4 5 13.5 17t22.5 27l-6 12q-17 -7 -29.5 -8.5t-28.5 -1.5h-405v62h553v-55l-449 -590q-16 -22 -43 -54l6 -12q20 7 35 8.5t35 1.5h414v-62h-575v54z" />
    <glyph glyph-name="bracketleft" unicode="[" horiz-adv-x="324" 
d="M98 -110v982h197v-44h-145v-894h145v-44h-197z" />
    <glyph glyph-name="backslash" unicode="\" horiz-adv-x="437" 
d="M377 -111l-342 874h59l343 -874h-60z" />
    <glyph glyph-name="bracketright" unicode="]" horiz-adv-x="324" 
d="M226 -110h-197v44h145v894h-145v44h197v-982z" />
    <glyph glyph-name="asciicircum" unicode="^" horiz-adv-x="543" 
d="M234 763h74l178 -467h-64l-95 253q-19 52 -29 82.5t-20 78.5h-14q-10 -48 -20 -78.5t-29 -82.5l-94 -253h-64z" />
    <glyph glyph-name="underscore" unicode="_" horiz-adv-x="403" 
d="M-14 -49v49h431v-49h-431z" />
    <glyph glyph-name="grave" unicode="`" horiz-adv-x="225" 
d="M209 609h-57l-136 154h76z" />
    <glyph glyph-name="a" unicode="a" horiz-adv-x="561" 
d="M98 31.5q-50 41.5 -50 114.5t59 115q26 18 57.5 28.5t70.5 18.5l196 39q-3 76 -37 114q-36 40 -112 40q-56 0 -97.5 -31t-51.5 -81h-65q12 79 72.5 124.5t142.5 45.5q103 0 157 -57q56 -59 56 -174v-328h-65v38q0 27 10 60l-14 7q-31 -54 -82 -84q-53 -31 -120 -31
q-77 0 -127 41.5zM324 70q54 26 84 91q17 39 20.5 63.5t4.5 29.5q2 12 6 18t15 8l-4 16q-34 -8 -93 -20l-121 -25q-64 -14 -92 -37q-31 -26 -31 -68q0 -46 33 -72t84 -26q50 0 94 22z" />
    <glyph glyph-name="b" unicode="b" horiz-adv-x="623" 
d="M139 103l-14 -8q7 -11 9.5 -21t2.5 -26v-48h-65v763h65v-262q0 -16 -2.5 -26t-9.5 -21l14 -8q73 113 194 113q71 0 125.5 -36.5t84.5 -101t30 -147.5q0 -82 -30 -146.5t-85 -101t-125 -36.5q-121 0 -194 113zM423 77.5q41 29.5 63 81t22 115.5q0 65 -22 116.5t-63 81
t-96 29.5t-98.5 -29.5t-68.5 -81.5t-25 -116t25 -115.5t68.5 -81t98.5 -29.5t96 29.5z" />
    <glyph glyph-name="c" unicode="c" horiz-adv-x="591" 
d="M175 27q-60 37 -93.5 102.5t-33.5 147.5q0 80 33.5 144t93.5 101t135 37q89 0 152 -46t82 -124h-70q-15 51 -59.5 81.5t-104.5 30.5q-56 0 -101 -29t-70.5 -80t-25.5 -115q0 -66 25.5 -118t70.5 -81.5t101 -29.5q64 0 109.5 34.5t57.5 90.5h71q-17 -84 -82 -133.5
t-156 -49.5q-75 0 -135 37z" />
    <glyph glyph-name="d" unicode="d" horiz-adv-x="623" 
d="M165 26.5q-55 36.5 -85 101t-30 146.5q0 83 30 147.5t84.5 101t125.5 36.5q121 0 194 -113l14 8q-7 11 -9.5 21t-2.5 26v262h65v-763h-65v48q0 16 2.5 26t9.5 21l-14 8q-73 -113 -194 -113q-70 0 -125 36.5zM394.5 77.5q43.5 29.5 68.5 81t25 115.5t-25 116t-68.5 81.5
t-98.5 29.5t-96 -29.5t-63 -81t-22 -116.5q0 -64 22 -115.5t63 -81t96 -29.5t98.5 29.5z" />
    <glyph glyph-name="e" unicode="e" horiz-adv-x="617" 
d="M175 27q-60 37 -93.5 102t-33.5 145q0 77 32 142t91.5 104t137.5 39q69 0 126.5 -32t93.5 -92t40 -142q1 -9 1 -30h-384q-57 0 -82 2l-4 -15q9 -2 12.5 -9.5t7.5 -23.5q5 -21 8 -30q22 -65 70.5 -102t111.5 -37q65 0 112 35t67 90h69q-25 -81 -89 -132t-159 -51
q-75 0 -135 37zM151.5 314q14.5 2 34.5 2h255q18 0 31 -2t32 -11l10 14q-8 8 -13 30q-7 25 -12 37q-23 55 -71 86t-108 31t-105.5 -29.5t-68.5 -83.5q-6 -13 -13 -40q-3 -10 -6.5 -18t-8.5 -13l9 -14q20 9 34.5 11z" />
    <glyph glyph-name="f" unicode="f" horiz-adv-x="343" 
d="M118 491h-92v58h92v62q0 152 138 152h66v-58h-52q-43 0 -65 -18.5t-22 -68.5q0 -34 -1.5 -47t-8.5 -22l10 -10q10 7 21.5 8.5t34.5 1.5h83v-58h-139v-491h-65v491z" />
    <glyph glyph-name="g" unicode="g" horiz-adv-x="622" 
d="M66 -56h65q17 -56 58.5 -83t117.5 -27q93 0 136 41t43 121v52q0 16 2.5 26t9.5 21l-14 8q-73 -113 -194 -113q-70 0 -125 36.5t-85 101.5t-30 148q0 82 30 146.5t85 100.5t125 36q121 0 194 -113l12 5q-10 33 -10 60v38h65v-542q0 -121 -62.5 -176t-180.5 -55
q-198 0 -242 168zM394.5 77.5q43.5 29.5 68.5 81t25 115.5t-25 116t-68.5 81.5t-98.5 29.5q-56 0 -97 -29.5t-62.5 -81t-21.5 -116.5q0 -64 22 -115.5t63 -81t96 -29.5t98.5 29.5z" />
    <glyph glyph-name="h" unicode="h" horiz-adv-x="559" 
d="M72 763h65v-262q0 -16 -2.5 -26t-9.5 -21l14 -8q31 59 73.5 86t104.5 27q50 0 88 -22.5t60 -61.5q17 -31 22 -65.5t5 -72.5v-337h-65v340q0 71 -24 110q-32 51 -100 51q-63 0 -105 -45q-30 -34 -45.5 -90.5t-15.5 -148.5v-217h-65v763z" />
    <glyph glyph-name="i" unicode="i" horiz-adv-x="209" 
d="M72 0v549h65v-549h-65zM70.5 690.5q-14.5 14.5 -14.5 34.5t14.5 34t34.5 14t34.5 -14t14.5 -34t-14.5 -34.5t-34.5 -14.5t-34.5 14.5z" />
    <glyph glyph-name="j" unicode="j" horiz-adv-x="209" 
d="M-68 -155h52q44 0 66 24t22 80v600h65v-610q0 -153 -138 -153h-67v59zM70.5 690.5q-14.5 14.5 -14.5 34.5t14.5 34t34.5 14t34.5 -14t14.5 -34t-14.5 -34.5t-34.5 -14.5t-34.5 14.5z" />
    <glyph glyph-name="k" unicode="k" horiz-adv-x="536" 
d="M72 763h65v-371q0 -17 -1.5 -30.5t-8.5 -31.5l12 -6q18 17 28 25.5t16 13.5l219 186h92l-250 -210q-8 -6 -17.5 -13t-22.5 -12v-14q22 -11 40 -29l276 -271h-90l-247 246l-44 43l-12 -7q7 -15 8.5 -27t1.5 -27v-228h-65v763z" />
    <glyph glyph-name="l" unicode="l" horiz-adv-x="263" 
d="M96.5 28q-27.5 28 -27.5 100v635h65v-625q0 -44 11.5 -62t51.5 -18h36v-58h-50q-59 0 -86.5 28z" />
    <glyph glyph-name="m" unicode="m" horiz-adv-x="889" 
d="M71 549h65v-48q0 -16 -2.5 -26t-9.5 -21l14 -8q21 61 65 87t97 26q60 0 102.5 -29.5t54.5 -85.5h12q21 57 67.5 86t106.5 29q90 0 134.5 -52t44.5 -150v-357h-65v341q0 73 -29 116.5t-90 43.5q-77 0 -117 -61q-20 -31 -30.5 -76.5t-10.5 -112.5v-251h-65v341
q0 73 -31 116.5t-90 43.5q-74 0 -117 -62q-21 -30 -31 -75t-10 -113v-251h-65v549z" />
    <glyph glyph-name="n" unicode="n" horiz-adv-x="558" 
d="M71 549h65v-48q0 -16 -2.5 -26t-9.5 -21l14 -8q31 59 73.5 86t104.5 27q50 0 88 -22.5t60 -61.5q17 -31 22 -65.5t5 -72.5v-337h-65v340q0 71 -24 110q-31 51 -100 51q-63 0 -105 -45q-30 -34 -45.5 -90.5t-15.5 -148.5v-217h-65v549z" />
    <glyph glyph-name="o" unicode="o" horiz-adv-x="625" 
d="M176 27q-60 37 -94 102.5t-34 147.5q0 80 34 144t94 101t135 37t135.5 -37t95 -101t34.5 -144q0 -81 -34 -146.5t-94.5 -103t-136.5 -37.5q-75 0 -135 37zM413 78q46 30 72 82t26 117q0 63 -26 114t-71.5 80.5t-102.5 29.5q-56 0 -101.5 -29t-71 -80.5t-25.5 -114.5
q0 -65 26 -117.5t71 -82t101 -29.5t102 30z" />
    <glyph glyph-name="p" unicode="p" horiz-adv-x="623" 
d="M458 522.5q55 -36.5 85 -101t30 -146.5q0 -83 -30 -147.5t-84.5 -101t-125.5 -36.5q-121 0 -194 113l-14 -8q7 -11 9.5 -21t2.5 -26v-262h-65v763h65v-48q0 -16 -2.5 -26t-9.5 -21l14 -8q73 113 194 113q70 0 125 -36.5zM228.5 471.5q-43.5 -29.5 -68.5 -81t-25 -115.5
t25 -116t68.5 -81.5t98.5 -29.5t96 29.5t63 81t22 116.5q0 64 -22 115.5t-63 81t-96 29.5t-98.5 -29.5z" />
    <glyph glyph-name="q" unicode="q" horiz-adv-x="640" 
d="M520.5 -180q-34.5 34 -34.5 109v119q0 16 2.5 26t9.5 21l-14 8q-73 -113 -194 -113q-71 0 -125.5 36.5t-84.5 101t-30 147.5q0 82 30 146.5t85 101t125 36.5q121 0 194 -113l12 5q-10 33 -10 60v38h65v-610q0 -56 17.5 -75t60.5 -19h36v-59h-40q-70 0 -104.5 34z
M394.5 77.5q43.5 29.5 68.5 81t25 116.5q0 64 -25 115.5t-68.5 81t-98.5 29.5t-96 -29.5t-63 -81t-22 -115.5q0 -65 22 -116.5t63 -81t96 -29.5t98.5 29.5z" />
    <glyph glyph-name="r" unicode="r" horiz-adv-x="345" 
d="M71 549h65v-48q0 -16 -2.5 -26t-9.5 -21l14 -8q25 59 65 86t102 27h18v-64h-25q-79 0 -117 -48q-24 -30 -34.5 -73t-10.5 -106v-268h-65v549z" />
    <glyph glyph-name="s" unicode="s" horiz-adv-x="543" 
d="M118.5 38.5q-62.5 48.5 -73.5 134.5h66q8 -59 52.5 -92t124.5 -33q65 0 102.5 26t37.5 73q0 37 -22.5 58.5t-55.5 32t-89 21.5q-63 13 -102 26t-66 42t-27 79q0 72 54.5 112.5t140.5 40.5q88 0 144.5 -46t69.5 -124h-65q-9 54 -48 83t-101 29q-61 0 -95.5 -23.5
t-34.5 -64.5q0 -31 20.5 -50t51 -28.5t83.5 -19.5q67 -14 108 -28t70 -46t29 -88q0 -75 -54.5 -119t-153.5 -44q-104 0 -166.5 48.5z" />
    <glyph glyph-name="t" unicode="t" horiz-adv-x="346" 
d="M145 29.5q-29 29.5 -29 108.5v353h-89v58h89v214h65v-214h129v-58h-129v-340q0 -36 4.5 -54.5t20 -28.5t48.5 -10h55v-58h-70q-65 0 -94 29.5z" />
    <glyph glyph-name="u" unicode="u" horiz-adv-x="558" 
d="M154 12.5q-38 22.5 -60 61.5q-17 31 -22 65.5t-5 72.5v337h65v-340q0 -71 24 -110q32 -51 100 -51q63 0 105 45q30 34 45.5 90.5t15.5 148.5v217h65v-549h-65v48q0 16 2.5 26t9.5 21l-14 8q-31 -59 -73.5 -86t-104.5 -27q-50 0 -88 22.5z" />
    <glyph glyph-name="v" unicode="v" horiz-adv-x="506" 
d="M23 549h71l131 -379q8 -23 12.5 -42t9.5 -52h13q5 33 9.5 52t12.5 42l131 379h70l-203 -549h-54z" />
    <glyph glyph-name="w" unicode="w" horiz-adv-x="805" 
d="M27 549h68l107 -391q6 -24 11 -60h13q4 32 13 60l133 391h60l133 -391q9 -28 13 -60h13q5 36 11 60l108 391h68l-159 -549h-61l-138 411q-8 24 -11 52h-13q-3 -28 -11 -52l-140 -411h-60z" />
    <glyph glyph-name="x" unicode="x" horiz-adv-x="541" 
d="M227 276l-204 273h77l125 -171q26 -35 37 -70h14q12 38 36 70l125 171h79l-205 -273l206 -276h-79l-126 172q-24 32 -36 70h-14q-12 -38 -36 -70l-125 -172h-78z" />
    <glyph glyph-name="y" unicode="y" horiz-adv-x="542" 
d="M67 -155h60q35 0 51.5 11t29.5 43l40 106l-228 544h72l164 -400q10 -23 13.5 -38t3.5 -30h16q0 16 2.5 30.5t11.5 37.5l144 400h72l-248 -672q-21 -55 -50.5 -73t-63.5 -18h-90v59z" />
    <glyph glyph-name="z" unicode="z" horiz-adv-x="521" 
d="M34 59l312 359q3 4 22.5 26.5t53.5 50.5l-6 12q-20 -10 -34.5 -13t-35.5 -3h-293v58h432v-64l-306 -354q-3 -4 -22.5 -26.5t-53.5 -50.5l6 -12q27 16 70 16h302v-58h-447v59z" />
    <glyph glyph-name="braceleft" unicode="{" horiz-adv-x="301" 
d="M131.5 -75.5q-29.5 34.5 -29.5 97.5v253q0 61 -64 80v52q64 19 64 80v253q0 63 29.5 97.5t84.5 34.5h56v-42h-38q-38 0 -58 -23t-20 -68v-253q0 -43 -20 -67.5t-67 -29.5v-16q47 -5 67 -29.5t20 -67.5v-253q0 -45 20 -68t58 -23h38v-42h-56q-55 0 -84.5 34.5z" />
    <glyph glyph-name="bar" unicode="|" horiz-adv-x="311" 
d="M123 -110v982h65v-982h-65z" />
    <glyph glyph-name="braceright" unicode="}" horiz-adv-x="301" 
d="M29 -110v42h38q38 0 58 23t20 68v253q0 43 20 67.5t67 29.5v16q-47 5 -67 29.5t-20 67.5v253q0 45 -20 68t-58 23h-38v42h56q55 0 84.5 -34.5t29.5 -97.5v-253q0 -61 64 -80v-52q-64 -19 -64 -80v-253q0 -63 -29.5 -97.5t-84.5 -34.5h-56z" />
    <glyph glyph-name="asciitilde" unicode="~" horiz-adv-x="520" 
d="M253.5 236q-19.5 14 -40.5 40q-16 20 -27 29t-27 9q-46 0 -52 -84h-50q3 66 31 102t74 36q29 0 48 -13.5t39 -38.5q16 -20 28.5 -30t29.5 -10q20 0 33 23t15 64h53q-5 -71 -29.5 -106t-72.5 -35q-33 0 -52.5 14z" />
    <glyph glyph-name="uni00A0" unicode="&#xa0;" horiz-adv-x="240" 
 />
    <glyph glyph-name="exclamdown" unicode="&#xa1;" horiz-adv-x="316" 
d="M207 548q15 -15 15 -36q0 -20 -15 -34.5t-36 -14.5q-20 0 -34.5 14.5t-14.5 34.5q0 21 14.5 36t34.5 15q21 0 36 -15zM201 254q3 -150 3 -174v-290h-65v290q0 94 4 218l1 42h55q0 -26 2 -86z" />
    <glyph glyph-name="cent" unicode="&#xa2;" horiz-adv-x="591" 
d="M163.5 38.5q-54.5 38.5 -85 100.5t-30.5 138t30.5 138t85 99t123.5 42v95h46v-95q81 -9 137.5 -53.5t73.5 -113.5h-70q-16 54 -69 86q-7 4 -18.5 10.5t-22 14t-20.5 18.5l-11 -5v-476l11 -5q19 20 39 31t26 14q27 17 44.5 41.5t23.5 54.5h71q-16 -77 -74 -125t-141 -55
v-95h-46v95q-69 7 -123.5 45.5zM287 38v474l-11 5q-17 -20 -35.5 -30.5t-24.5 -13.5q-47 -28 -75 -80t-28 -116t26 -115.5t71 -80.5l18 -12q12 -7 24.5 -15.5t23.5 -20.5z" />
    <glyph glyph-name="sterling" unicode="&#xa3;" horiz-adv-x="611" 
d="M171 127.5q40 39.5 40 94.5q0 39 -14 79t-41 89h-94v43h30q13 0 24 -1.5t26 -8.5l8 11q-25 51 -25 107q0 69 27 121.5t77 81.5t118 29q85 0 142.5 -47t70.5 -137h-64q-11 62 -50 94t-97 32q-79 0 -119 -49t-40 -127q0 -48 22 -106h222v-43h-148q-18 0 -31 1.5t-32 8.5
l-8 -12q32 -33 46.5 -78.5t14.5 -90.5q0 -59 -29.5 -100t-75.5 -57l3 -12q36 9 59 8.5t28 -0.5h295v-58h-499v77q74 11 114 50.5z" />
    <glyph glyph-name="currency" unicode="&#xa4;" horiz-adv-x="728" 
d="M98 120l70 70q-25 31 -39 71t-14 82q0 85 53 150l-69 69l43 45l70 -69q32 26 71.5 39.5t81.5 13.5t80.5 -13.5t69.5 -38.5l69 68l47 -44l-70 -70q53 -67 53 -151q0 -44 -15 -84.5t-39 -68.5l67 -67l-45 -45l-67 68q-30 -25 -70 -38.5t-81 -13.5t-82.5 13.5t-69.5 38.5
l-68 -68zM435 168.5q34 13.5 61 40.5q54 54 54 132q0 37 -14 71.5t-42 61.5q-53 53 -131 53q-37 0 -71 -13.5t-60 -40.5q-53 -53 -53 -131q0 -79 53 -132q55 -55 132 -55q37 0 71 13.5z" />
    <glyph glyph-name="yen" unicode="&#xa5;" horiz-adv-x="663" 
d="M300 155h-181v58h181v56h-181v58h98q39 0 64 -10l7 12q-33 30 -51 60l-229 374h80l212 -352q3 -4 9.5 -15.5t10 -24.5t3.5 -31h16q0 23 4.5 35.5t11 22t8.5 13.5l212 352h80l-229 -374q-9 -16 -19.5 -29t-30.5 -31l7 -12q25 10 64 10h98v-58h-180v-56h180v-58h-180v-155
h-65v155z" />
    <glyph glyph-name="brokenbar" unicode="&#xa6;" horiz-adv-x="311" 
d="M123 450v422h65v-422h-65zM123 -110v417h65v-417h-65z" />
    <glyph glyph-name="section" unicode="&#xa7;" horiz-adv-x="714" 
d="M179 -186q-80 51 -102 148h72q21 -67 80 -104t137 -37q85 0 133.5 37.5t48.5 105.5q0 57 -31.5 89t-73.5 45t-126 31q-63 14 -107 33t-72.5 56t-28.5 97q0 44 21.5 78t67.5 50v13q-89 25 -89 128q0 58 31 100.5t86.5 65.5t127.5 23q93 0 157.5 -45.5t89.5 -130.5h-66
q-24 57 -71.5 87t-113.5 30q-78 0 -123.5 -34.5t-45.5 -92.5q0 -47 26.5 -74.5t66 -41t102.5 -25.5q76 -16 125 -35t84 -60.5t35 -113.5q0 -101 -75 -130v-14q75 -25 75 -127q0 -94 -66.5 -148.5t-185.5 -54.5q-109 0 -189 51zM537 180.5q11 22.5 11 53.5q0 54 -28 85
t-69 45.5t-111 29.5l-22 5l-20 5q-29 5 -50 13q-67 -31 -67 -100q0 -46 26 -73.5t65.5 -41t102.5 -26.5q85 -18 129 -37q22 19 33 41.5z" />
    <glyph glyph-name="dieresis" unicode="&#xa8;" horiz-adv-x="322" 
d="M30.5 690.5q-14.5 14.5 -14.5 34.5t14.5 34t34.5 14t34.5 -14t14.5 -34t-14.5 -34.5t-34.5 -14.5t-34.5 14.5zM222.5 690.5q-14.5 14.5 -14.5 34.5t14.5 34t34.5 14t34.5 -14t14.5 -34t-14.5 -34.5t-34.5 -14.5t-34.5 14.5z" />
    <glyph glyph-name="copyright" unicode="&#xa9;" horiz-adv-x="895" 
d="M252.5 45.5q-88.5 51.5 -140.5 140t-52 194.5q0 108 51.5 197.5t140 141.5t195.5 52t195.5 -52t140 -141.5t51.5 -197.5q0 -106 -52 -194.5t-140.5 -140t-194.5 -51.5t-194.5 51.5zM612 97.5q75 43.5 118.5 118.5t43.5 164q0 92 -43.5 167.5t-118 119.5t-165.5 44
t-165.5 -44t-118 -119.5t-43.5 -167.5q0 -89 43.5 -164t118.5 -118.5t165 -43.5t165 43.5zM326 173.5q-54 31.5 -85.5 86.5t-31.5 120t31.5 120t85.5 86.5t119 31.5q51 0 100 -23t84 -63l-45 -38q-27 30 -64.5 47t-75.5 17q-48 0 -89 -23.5t-64.5 -64.5t-23.5 -90t23.5 -90
t64.5 -64.5t89 -23.5q38 0 75.5 17t64.5 47l45 -38q-35 -40 -84 -63t-100 -23q-65 0 -119 31.5z" />
    <glyph glyph-name="ordfeminine" unicode="&#xaa;" horiz-adv-x="426" 
d="M83 404q-35 29 -35 80q0 52 41 81q18 13 39.5 19.5t50.5 13.5l137 27q-3 55 -26 80q-25 28 -79 28q-39 0 -68 -21.5t-36 -57.5h-45q9 56 50.5 87.5t99.5 31.5q73 0 110 -40q39 -40 39 -121v-230h-45v27q0 19 7 42l-10 5q-21 -38 -58 -59q-37 -22 -83 -22q-54 0 -89 29z
M241 431q21 10 35 26t24 38q12 28 14.5 45t2.5 20q2 9 4.5 13t10.5 5l-3 11q-18 -5 -38 -8l-27 -6l-85 -17q-44 -10 -64 -26q-22 -19 -22 -48q0 -32 23 -50t59 -18q35 0 66 15z" />
    <glyph glyph-name="guillemotleft" unicode="&#xab;" horiz-adv-x="574" 
d="M29 276l212 184v-65l-88 -76q-14 -12 -28 -20t-43 -16v-14q29 -8 43 -15.5t28 -19.5l88 -77v-65zM296 276l212 184v-65l-88 -76q-14 -12 -28 -20t-43 -16v-14q29 -8 43 -15.5t28 -19.5l88 -77v-65z" />
    <glyph glyph-name="uni00AD" unicode="&#xad;" horiz-adv-x="365" 
d="M0 314v49h365v-49h-365z" />
    <glyph glyph-name="registered" unicode="&#xae;" horiz-adv-x="507" 
d="M150.5 394q-46.5 27 -73.5 73.5t-27 102.5q0 55 27 101.5t73.5 74t102.5 27.5t102.5 -27.5t73.5 -74t27 -101.5q0 -56 -27 -102.5t-73.5 -73.5t-102.5 -27t-102.5 27zM342 416q41 24 65 64.5t24 89.5q0 48 -24 89t-65 65t-89 24t-89 -24t-65 -65t-24 -89q0 -49 24 -89.5
t65 -64.5t89 -24t89 24zM187 687h84q35 0 55 -17.5t20 -49.5t-22 -51q-5 -5 -12 -7t-12 -1l-2 -4q6 -6 10 -14l40 -92h-26l-43 101h-68v-101h-24v236zM308 585q14 12 14 34t-14 34t-40 12h-57v-92h57q26 0 40 12z" />
    <glyph glyph-name="macron" unicode="&#xaf;" horiz-adv-x="326" 
d="M16 671v34h294v-34h-294z" />
    <glyph glyph-name="degree" unicode="&#xb0;" horiz-adv-x="481" 
d="M162.5 484q-35.5 21 -56.5 56.5t-21 77.5t21 77.5t56.5 56.5t77.5 21t78 -21t57 -56.5t21 -77.5t-21 -77.5t-57 -56.5t-78 -21t-77.5 21zM313 545.5q30 30.5 30 72.5q0 43 -30 73t-73 30q-42 0 -72 -30t-30 -73q0 -42 30 -72.5t72 -30.5q43 0 73 30.5z" />
    <glyph glyph-name="plusminus" unicode="&#xb1;" horiz-adv-x="697" 
d="M320 157v167h-248v58h248v167h58v-167h247v-58h-247v-167h-58zM72 0v58h553v-58h-553z" />
    <glyph glyph-name="acute" unicode="&#xb4;" horiz-adv-x="225" 
d="M16 609l117 154h76l-136 -154h-57z" />
    <glyph glyph-name="paragraph" unicode="&#xb6;" horiz-adv-x="604" 
d="M181.5 364.5q-55.5 26.5 -89.5 74.5t-34 111q0 65 34 113.5t90 74t120 25.5h64v-873h-64v446q-65 2 -120.5 28.5zM461 -110v873h64v-873h-64z" />
    <glyph glyph-name="periodcentered" unicode="&#xb7;" horiz-adv-x="325" 
d="M111.5 345.5q-20.5 20.5 -20.5 49.5q0 30 20.5 50.5t50.5 20.5t51 -20.5t21 -50.5q0 -29 -21.5 -49.5t-50.5 -20.5q-30 0 -50.5 20.5z" />
    <glyph glyph-name="cedilla" unicode="&#xb8;" horiz-adv-x="242" 
d="M16 -210v30q46 -19 88 -19q38 0 59.5 15t21.5 43q0 30 -24 43.5t-69 18.5q-28 2 -57 2l66 89h42q-30 -38 -69 -68l7 -9q13 3 31 3q16 0 33 -3q35 -6 58 -24.5t23 -50.5q0 -41 -32.5 -62.5t-86.5 -21.5q-43 0 -91 14z" />
    <glyph glyph-name="ordmasculine" unicode="&#xba;" horiz-adv-x="466" 
d="M137 401q-42 26 -65.5 72t-23.5 103q0 56 23.5 101t65.5 70.5t95 25.5t95 -25.5t66 -70.5t24 -101q0 -57 -23.5 -103t-66 -72t-95.5 -26t-95 26zM303 437q32 21 50.5 57.5t18.5 81.5q0 44 -18.5 80t-50.5 56.5t-71 20.5t-71 -20.5t-50 -56.5t-18 -80q0 -46 18 -82.5
t50 -57t71 -20.5t71 21z" />
    <glyph glyph-name="guillemotright" unicode="&#xbb;" horiz-adv-x="574" 
d="M66 157l88 77q14 12 28 19.5t43 15.5v14q-29 8 -42.5 16t-28.5 20l-88 76v65l212 -184l-212 -184v65zM333 157l88 77q14 12 28 19.5t43 15.5v14q-29 8 -42.5 16t-28.5 20l-88 76v65l212 -184l-212 -184v65z" />
    <glyph glyph-name="questiondown" unicode="&#xbf;" horiz-adv-x="546" 
d="M313 544q15 -15 15 -36q0 -20 -15 -34.5t-35 -14.5t-35 14.5t-15 34.5q0 22 15 36.5t35 14.5t35 -15zM292.5 215q-15.5 -38 -37.5 -60.5t-57 -48.5q-28 -21 -45 -37t-28 -39.5t-11 -57.5q0 -66 43 -103t118 -37t120 42t49 112h57q-4 -96 -65 -153t-157 -57
q-100 0 -162 52.5t-62 146.5q0 42 13 71.5t31 48t50 43.5q32 24 51.5 44t33 51.5t13.5 76.5v28h61v-28q0 -57 -15.5 -95z" />
    <glyph glyph-name="Agrave" unicode="&#xc0;" horiz-adv-x="688" 
d="M16 0l288 763h80l288 -763h-71l-77 206h-360l-77 -206h-71zM502 268l-126 339q-14 36 -19 53.5t-5 39.5h-16q0 -22 -5 -39.5t-19 -53.5l-126 -339h316zM378 823h-57l-136 154h76z" />
    <glyph glyph-name="Aacute" unicode="&#xc1;" horiz-adv-x="688" 
d="M16 0l288 763h80l288 -763h-71l-77 206h-360l-77 -206h-71zM502 268l-126 339q-14 36 -19 53.5t-5 39.5h-16q0 -22 -5 -39.5t-19 -53.5l-126 -339h316zM310 823l117 154h76l-136 -154h-57z" />
    <glyph glyph-name="Acircumflex" unicode="&#xc2;" horiz-adv-x="688" 
d="M16 0l288 763h80l288 -763h-71l-77 206h-360l-77 -206h-71zM502 268l-126 339q-14 36 -19 53.5t-5 39.5h-16q0 -22 -5 -39.5t-19 -53.5l-126 -339h316zM337 994h14l157 -161h-72l-57 61q-28 30 -28 50h-14q0 -20 -28 -50l-57 -61h-72z" />
    <glyph glyph-name="Atilde" unicode="&#xc3;" horiz-adv-x="688" 
d="M16 0l288 763h80l288 -763h-71l-77 206h-360l-77 -206h-71zM502 268l-126 339q-14 36 -19 53.5t-5 39.5h-16q0 -22 -5 -39.5t-19 -53.5l-126 -339h316zM367.5 850q-19.5 14 -40.5 40q-16 20 -27 29t-27 9q-46 0 -52 -84h-50q3 66 31 102t74 36q29 0 48 -13.5t39 -38.5
q16 -20 28.5 -30t29.5 -10q20 0 33 23t15 64h53q-5 -71 -29.5 -106t-72.5 -35q-33 0 -52.5 14z" />
    <glyph glyph-name="Adieresis" unicode="&#xc4;" horiz-adv-x="688" 
d="M16 0l288 763h80l288 -763h-71l-77 206h-360l-77 -206h-71zM502 268l-126 339q-14 36 -19 53.5t-5 39.5h-16q0 -22 -5 -39.5t-19 -53.5l-126 -339h316zM213.5 826.5q-14.5 14.5 -14.5 34.5t14.5 34t34.5 14t34.5 -14t14.5 -34t-14.5 -34.5t-34.5 -14.5t-34.5 14.5z
M405.5 826.5q-14.5 14.5 -14.5 34.5t14.5 34t34.5 14t34.5 -14t14.5 -34t-14.5 -34.5t-34.5 -14.5t-34.5 14.5z" />
    <glyph glyph-name="Aring" unicode="&#xc5;" horiz-adv-x="688" 
d="M250 771.5q-15 25.5 -15 54.5q0 45 31.5 76.5t77.5 31.5q44 0 76.5 -31.5t32.5 -76.5q0 -31 -15.5 -56t-41.5 -40l276 -730h-71l-77 206h-360l-77 -206h-71l275 729q-26 17 -41 42.5zM388.5 782.5q17.5 18.5 17.5 45.5q0 25 -17 42.5t-44 17.5q-26 0 -44 -17.5t-18 -42.5
q0 -27 18 -45.5t44 -18.5t43.5 18.5zM502 267l-126 340q-14 36 -19 53.5t-5 39.5h-16q0 -22 -5 -39.5t-19 -53.5l-126 -340h316z" />
    <glyph glyph-name="AE" unicode="&#xc6;" horiz-adv-x="1061" 
d="M16 0l288 763h454l24 -62h-374l108 -287h373l22 -61h-372l110 -291h372l24 -62h-448l-73 206h-360l-77 -206h-71zM502 267l-126 340q-14 36 -19 53.5t-5 39.5h-16q0 -22 -5 -39.5t-19 -53.5l-126 -340h316z" />
    <glyph glyph-name="Ccedilla" unicode="&#xc7;" horiz-adv-x="733" 
d="M542.5 95q59.5 43 75.5 121h73q-19 -103 -94.5 -163.5t-192.5 -62.5q-28 -28 -51 -46l7 -9q15 3 31 3q17 0 33 -3q35 -6 58 -24.5t23 -50.5q0 -41 -32.5 -62.5t-86.5 -21.5q-43 0 -91 14v30q46 -19 88 -19q38 0 59.5 15t21.5 43q0 30 -24 43.5t-69 18.5q-28 2 -57 2
l50 68q-103 7 -173.5 61.5t-105.5 141t-35 188.5q0 107 38 196t116 142t191 53q80 0 142.5 -27t102 -75t51.5 -110h-73q-15 69 -75.5 109.5t-149.5 40.5t-150.5 -42.5t-92.5 -117t-31 -169.5t31 -170t92.5 -117.5t150.5 -42.5q90 0 149.5 43z" />
    <glyph glyph-name="Egrave" unicode="&#xc8;" horiz-adv-x="609" 
d="M79 0v763h486v-62h-417v-287h366v-62h-366v-290h417v-62h-486zM356 823h-57l-136 154h76z" />
    <glyph glyph-name="Eacute" unicode="&#xc9;" horiz-adv-x="609" 
d="M79 0v763h486v-62h-417v-287h366v-62h-366v-290h417v-62h-486zM288 823l117 154h76l-136 -154h-57z" />
    <glyph glyph-name="Ecircumflex" unicode="&#xca;" horiz-adv-x="609" 
d="M79 0v763h486v-62h-417v-287h366v-62h-366v-290h417v-62h-486zM315 994h14l157 -161h-72l-57 61q-28 30 -28 50h-14q0 -20 -28 -50l-57 -61h-72z" />
    <glyph glyph-name="Edieresis" unicode="&#xcb;" horiz-adv-x="609" 
d="M79 0v763h486v-62h-417v-287h366v-62h-366v-290h417v-62h-486zM191.5 826.5q-14.5 14.5 -14.5 34.5t14.5 34t34.5 14t34.5 -14t14.5 -34t-14.5 -34.5t-34.5 -14.5t-34.5 14.5zM383.5 826.5q-14.5 14.5 -14.5 34.5t14.5 34t34.5 14t34.5 -14t14.5 -34t-14.5 -34.5
t-34.5 -14.5t-34.5 14.5z" />
    <glyph glyph-name="Igrave" unicode="&#xcc;" horiz-adv-x="228" 
d="M79 0v763h69v-763h-69zM148 823h-57l-136 154h76z" />
    <glyph glyph-name="Iacute" unicode="&#xcd;" horiz-adv-x="228" 
d="M79 0v763h69v-763h-69zM80 823l117 154h76l-136 -154h-57z" />
    <glyph glyph-name="Icircumflex" unicode="&#xce;" horiz-adv-x="228" 
d="M79 0v763h69v-763h-69zM107 994h14l157 -161h-72l-57 61q-28 30 -28 50h-14q0 -20 -28 -50l-57 -61h-72z" />
    <glyph glyph-name="Idieresis" unicode="&#xcf;" horiz-adv-x="228" 
d="M79 0v763h69v-763h-69zM-16.5 826.5q-14.5 14.5 -14.5 34.5t14.5 34t34.5 14t34.5 -14t14.5 -34t-14.5 -34.5t-34.5 -14.5t-34.5 14.5zM175.5 826.5q-14.5 14.5 -14.5 34.5t14.5 34t34.5 14t34.5 -14t14.5 -34t-14.5 -34.5t-34.5 -14.5t-34.5 14.5z" />
    <glyph glyph-name="Eth" unicode="&#xd0;" horiz-adv-x="723" 
d="M571.5 663q100.5 -100 100.5 -285q0 -181 -101 -279.5t-289 -98.5h-203v353h-63v57h63v353h204q188 0 288.5 -100zM517.5 135.5q86.5 73.5 86.5 242.5q0 166 -84 244.5t-237 78.5h-135v-291h259v-57h-259v-291h134q149 0 235.5 73.5z" />
    <glyph glyph-name="Ntilde" unicode="&#xd1;" horiz-adv-x="704" 
d="M79 763h106l323 -609q25 -47 39 -93l15 3q-6 41 -6 89v610h68v-763h-106l-323 609q-13 24 -20.5 42t-15.5 46l-15 -3q4 -40 4 -85v-609h-69v763zM375.5 850q-19.5 14 -40.5 40q-16 20 -27 29t-27 9q-46 0 -52 -84h-50q3 66 31 102t74 36q29 0 48 -13.5t39 -38.5
q16 -20 28.5 -30t29.5 -10q20 0 33 23t15 64h53q-5 -71 -29.5 -106t-72.5 -35q-33 0 -52.5 14z" />
    <glyph glyph-name="Ograve" unicode="&#xd2;" horiz-adv-x="794" 
d="M206 43q-78 53 -117 142.5t-39 196.5t39 196t117 142t191 53t191 -53t117 -142t39 -196t-39 -196.5t-117 -142.5t-191 -53t-191 53zM548.5 95q62.5 43 94.5 117.5t32 169.5t-32 169.5t-94.5 117t-151.5 42.5t-151.5 -42.5t-94.5 -117t-32 -169.5t32 -169.5t94.5 -117.5
t151.5 -43t151.5 43zM432 823h-57l-136 154h76z" />
    <glyph glyph-name="Oacute" unicode="&#xd3;" horiz-adv-x="794" 
d="M206 43q-78 53 -117 142.5t-39 196.5t39 196t117 142t191 53t191 -53t117 -142t39 -196t-39 -196.5t-117 -142.5t-191 -53t-191 53zM548.5 95q62.5 43 94.5 117.5t32 169.5t-32 169.5t-94.5 117t-151.5 42.5t-151.5 -42.5t-94.5 -117t-32 -169.5t32 -169.5t94.5 -117.5
t151.5 -43t151.5 43zM364 823l117 154h76l-136 -154h-57z" />
    <glyph glyph-name="Ocircumflex" unicode="&#xd4;" horiz-adv-x="794" 
d="M206 43q-78 53 -117 142.5t-39 196.5t39 196t117 142t191 53t191 -53t117 -142t39 -196t-39 -196.5t-117 -142.5t-191 -53t-191 53zM548.5 95q62.5 43 94.5 117.5t32 169.5t-32 169.5t-94.5 117t-151.5 42.5t-151.5 -42.5t-94.5 -117t-32 -169.5t32 -169.5t94.5 -117.5
t151.5 -43t151.5 43zM391 994h14l157 -161h-72l-57 61q-28 30 -28 50h-14q0 -20 -28 -50l-57 -61h-72z" />
    <glyph glyph-name="Otilde" unicode="&#xd5;" horiz-adv-x="794" 
d="M206 43q-78 53 -117 142.5t-39 196.5t39 196t117 142t191 53t191 -53t117 -142t39 -196t-39 -196.5t-117 -142.5t-191 -53t-191 53zM548.5 95q62.5 43 94.5 117.5t32 169.5t-32 169.5t-94.5 117t-151.5 42.5t-151.5 -42.5t-94.5 -117t-32 -169.5t32 -169.5t94.5 -117.5
t151.5 -43t151.5 43zM421.5 850q-19.5 14 -40.5 40q-16 20 -27 29t-27 9q-46 0 -52 -84h-50q3 66 31 102t74 36q29 0 48 -13.5t39 -38.5q16 -20 28.5 -30t29.5 -10q20 0 33 23t15 64h53q-5 -71 -29.5 -106t-72.5 -35q-33 0 -52.5 14z" />
    <glyph glyph-name="Odieresis" unicode="&#xd6;" horiz-adv-x="794" 
d="M206 43q-78 53 -117 142.5t-39 196.5t39 196t117 142t191 53t191 -53t117 -142t39 -196t-39 -196.5t-117 -142.5t-191 -53t-191 53zM548.5 95q62.5 43 94.5 117.5t32 169.5t-32 169.5t-94.5 117t-151.5 42.5t-151.5 -42.5t-94.5 -117t-32 -169.5t32 -169.5t94.5 -117.5
t151.5 -43t151.5 43zM267.5 826.5q-14.5 14.5 -14.5 34.5t14.5 34t34.5 14t34.5 -14t14.5 -34t-14.5 -34.5t-34.5 -14.5t-34.5 14.5zM459.5 826.5q-14.5 14.5 -14.5 34.5t14.5 34t34.5 14t34.5 -14t14.5 -34t-14.5 -34.5t-34.5 -14.5t-34.5 14.5z" />
    <glyph glyph-name="multiply" unicode="&#xd7;" horiz-adv-x="567" 
d="M109 122l-41 41l175 175l-176 175l41 41l176 -175l175 174l41 -41l-175 -174l175 -175l-41 -41l-175 175z" />
    <glyph glyph-name="Oslash" unicode="&#xd8;" horiz-adv-x="794" 
d="M679 627q32 -50 48.5 -112.5t16.5 -132.5q0 -107 -39 -196.5t-117 -142.5t-191 -53q-80 0 -143.5 27.5t-107.5 77.5l-59 -59l-35 35l64 64q-66 103 -66 247q0 107 39 196t117 142t191 53q157 0 252 -105l60 60l35 -36zM165 184l436 436q-35 44 -87 67.5t-117 23.5
q-89 0 -151.5 -42.5t-94.5 -117t-32 -169.5q0 -118 46 -198zM630 578l-437 -436q76 -90 204 -90q89 0 151.5 43t94.5 117.5t32 169.5q0 115 -45 196z" />
    <glyph glyph-name="Ugrave" unicode="&#xd9;" horiz-adv-x="689" 
d="M139.5 63q-67.5 73 -67.5 207v493h69v-493q0 -218 203 -218t203 218v493h69v-493q0 -134 -67.5 -207t-204.5 -73t-204.5 73zM379 823h-57l-136 154h76z" />
    <glyph glyph-name="Uacute" unicode="&#xda;" horiz-adv-x="689" 
d="M139.5 63q-67.5 73 -67.5 207v493h69v-493q0 -218 203 -218t203 218v493h69v-493q0 -134 -67.5 -207t-204.5 -73t-204.5 73zM311 823l117 154h76l-136 -154h-57z" />
    <glyph glyph-name="Ucircumflex" unicode="&#xdb;" horiz-adv-x="689" 
d="M139.5 63q-67.5 73 -67.5 207v493h69v-493q0 -218 203 -218t203 218v493h69v-493q0 -134 -67.5 -207t-204.5 -73t-204.5 73zM338 994h14l157 -161h-72l-57 61q-28 30 -28 50h-14q0 -20 -28 -50l-57 -61h-72z" />
    <glyph glyph-name="Udieresis" unicode="&#xdc;" horiz-adv-x="689" 
d="M139.5 63q-67.5 73 -67.5 207v493h69v-493q0 -218 203 -218t203 218v493h69v-493q0 -134 -67.5 -207t-204.5 -73t-204.5 73zM214.5 826.5q-14.5 14.5 -14.5 34.5t14.5 34t34.5 14t34.5 -14t14.5 -34t-14.5 -34.5t-34.5 -14.5t-34.5 14.5zM406.5 826.5
q-14.5 14.5 -14.5 34.5t14.5 34t34.5 14t34.5 -14t14.5 -34t-14.5 -34.5t-34.5 -14.5t-34.5 14.5z" />
    <glyph glyph-name="Yacute" unicode="&#xdd;" horiz-adv-x="662" 
d="M295 292l-287 471h80l212 -352q15 -24 19 -36.5t4 -34.5h16q0 21 4 33t19 38l212 352h80l-287 -471v-292h-72v292zM297 823l117 154h76l-136 -154h-57z" />
    <glyph glyph-name="Thorn" unicode="&#xde;" horiz-adv-x="628" 
d="M79 763h68v-110h195q113 0 178 -55t65 -158q0 -101 -65 -157.5t-178 -56.5h-195v-226h-68v763zM469.5 326q47.5 39 47.5 112t-48 113t-134 40h-188v-304h188q87 0 134.5 39z" />
    <glyph glyph-name="germandbls" unicode="&#xdf;" horiz-adv-x="665" 
d="M145.5 697q64.5 76 200.5 76q75 0 129.5 -25t83 -68t28.5 -97q0 -76 -41 -126q-13 -14 -27.5 -23t-41.5 -16v-11q47 -7 74 -25q74 -52 74 -171q0 -113 -74.5 -162t-177.5 -49h-104v58h97q78 0 136 33.5t58 123.5q0 91 -51 125.5t-116 34.5h-124v58h107q69 0 107.5 37.5
t38.5 101.5q0 69 -46 106t-130 37q-96 0 -148 -58t-52 -175v-482h-65v482q0 139 64.5 215z" />
    <glyph glyph-name="agrave" unicode="&#xe0;" horiz-adv-x="561" 
d="M98 31.5q-50 41.5 -50 114.5t59 115q26 18 57.5 28.5t70.5 18.5l196 39q-3 76 -37 114q-36 40 -112 40q-56 0 -97.5 -31t-51.5 -81h-65q12 79 72.5 124.5t142.5 45.5q103 0 157 -57q56 -59 56 -174v-328h-65v38q0 27 10 60l-14 7q-31 -54 -82 -84q-53 -31 -120 -31
q-77 0 -127 41.5zM324 70q54 26 84 91q17 39 20.5 63.5t4.5 29.5q2 12 6 18t15 8l-4 16q-34 -8 -93 -20l-121 -25q-64 -14 -92 -37q-31 -26 -31 -68q0 -46 33 -72t84 -26q50 0 94 22zM322 609h-57l-136 154h76z" />
    <glyph glyph-name="aacute" unicode="&#xe1;" horiz-adv-x="561" 
d="M98 31.5q-50 41.5 -50 114.5t59 115q26 18 57.5 28.5t70.5 18.5l196 39q-3 76 -37 114q-36 40 -112 40q-56 0 -97.5 -31t-51.5 -81h-65q12 79 72.5 124.5t142.5 45.5q103 0 157 -57q56 -59 56 -174v-328h-65v38q0 27 10 60l-14 7q-31 -54 -82 -84q-53 -31 -120 -31
q-77 0 -127 41.5zM324 70q54 26 84 91q17 39 20.5 63.5t4.5 29.5q2 12 6 18t15 8l-4 16q-34 -8 -93 -20l-121 -25q-64 -14 -92 -37q-31 -26 -31 -68q0 -46 33 -72t84 -26q50 0 94 22zM254 609l117 154h76l-136 -154h-57z" />
    <glyph glyph-name="acircumflex" unicode="&#xe2;" horiz-adv-x="561" 
d="M98 31.5q-50 41.5 -50 114.5t59 115q26 18 57.5 28.5t70.5 18.5l196 39q-3 76 -37 114q-36 40 -112 40q-56 0 -97.5 -31t-51.5 -81h-65q12 79 72.5 124.5t142.5 45.5q103 0 157 -57q56 -59 56 -174v-328h-65v38q0 27 10 60l-14 7q-31 -54 -82 -84q-53 -31 -120 -31
q-77 0 -127 41.5zM324 70q54 26 84 91q17 39 20.5 63.5t4.5 29.5q2 12 6 18t15 8l-4 16q-34 -8 -93 -20l-121 -25q-64 -14 -92 -37q-31 -26 -31 -68q0 -46 33 -72t84 -26q50 0 94 22zM281 780h14l157 -161h-72l-57 61q-28 30 -28 50h-14q0 -20 -28 -50l-57 -61h-72z" />
    <glyph glyph-name="atilde" unicode="&#xe3;" horiz-adv-x="561" 
d="M98 31.5q-50 41.5 -50 114.5t59 115q26 18 57.5 28.5t70.5 18.5l196 39q-3 76 -37 114q-36 40 -112 40q-56 0 -97.5 -31t-51.5 -81h-65q12 79 72.5 124.5t142.5 45.5q103 0 157 -57q56 -59 56 -174v-328h-65v38q0 27 10 60l-14 7q-31 -54 -82 -84q-53 -31 -120 -31
q-77 0 -127 41.5zM324 70q54 26 84 91q17 39 20.5 63.5t4.5 29.5q2 12 6 18t15 8l-4 16q-34 -8 -93 -20l-121 -25q-64 -14 -92 -37q-31 -26 -31 -68q0 -46 33 -72t84 -26q50 0 94 22zM311.5 636q-19.5 14 -40.5 40q-16 20 -27 29t-27 9q-46 0 -52 -84h-50q3 66 31 102t74 36
q29 0 48 -13.5t39 -38.5q16 -20 28.5 -30t29.5 -10q20 0 33 23t15 64h53q-5 -71 -29.5 -106t-72.5 -35q-33 0 -52.5 14z" />
    <glyph glyph-name="adieresis" unicode="&#xe4;" horiz-adv-x="561" 
d="M98 31.5q-50 41.5 -50 114.5t59 115q26 18 57.5 28.5t70.5 18.5l196 39q-3 76 -37 114q-36 40 -112 40q-56 0 -97.5 -31t-51.5 -81h-65q12 79 72.5 124.5t142.5 45.5q103 0 157 -57q56 -59 56 -174v-328h-65v38q0 27 10 60l-14 7q-31 -54 -82 -84q-53 -31 -120 -31
q-77 0 -127 41.5zM324 70q54 26 84 91q17 39 20.5 63.5t4.5 29.5q2 12 6 18t15 8l-4 16q-34 -8 -93 -20l-121 -25q-64 -14 -92 -37q-31 -26 -31 -68q0 -46 33 -72t84 -26q50 0 94 22zM157.5 690.5q-14.5 14.5 -14.5 34.5t14.5 34t34.5 14t34.5 -14t14.5 -34t-14.5 -34.5
t-34.5 -14.5t-34.5 14.5zM349.5 690.5q-14.5 14.5 -14.5 34.5t14.5 34t34.5 14t34.5 -14t14.5 -34t-14.5 -34.5t-34.5 -14.5t-34.5 14.5z" />
    <glyph glyph-name="aring" unicode="&#xe5;" horiz-adv-x="561" 
d="M98 31.5q-50 41.5 -50 114.5t59 115q26 18 57.5 28.5t70.5 18.5l196 39q-3 76 -37 114q-36 40 -112 40q-56 0 -97.5 -31t-51.5 -81h-65q12 79 72.5 124.5t142.5 45.5q103 0 157 -57q56 -59 56 -174v-328h-65v38q0 27 10 60l-14 7q-31 -54 -82 -84q-53 -31 -120 -31
q-77 0 -127 41.5zM324 70q54 26 84 91q17 39 20.5 63.5t4.5 29.5q2 12 6 18t15 8l-4 16q-34 -8 -93 -20l-121 -25q-64 -14 -92 -37q-31 -26 -31 -68q0 -46 33 -72t84 -26q50 0 94 22zM211 620q-32 32 -32 77t31.5 76.5t77.5 31.5q44 0 76.5 -31.5t32.5 -76.5t-32 -77
t-77 -32t-77 32zM331.5 653.5q17.5 18.5 17.5 45.5q0 25 -17 42.5t-44 17.5q-26 0 -44 -17.5t-18 -42.5q0 -27 18 -45.5t44 -18.5t43.5 18.5z" />
    <glyph glyph-name="ae" unicode="&#xe6;" horiz-adv-x="1178" 
d="M98 31.5q-50 41.5 -50 114.5t59 115q26 18 57.5 28.5t70.5 18.5l196 39q-3 76 -37 114q-36 40 -112 40q-56 0 -97.5 -31t-51.5 -81h-65q12 79 72.5 124.5t142.5 45.5q103 0 157 -57q56 -59 56 -174v-328h-65v38q0 27 10 60l-14 7q-31 -54 -82 -84q-53 -31 -120 -31
q-77 0 -127 41.5zM324 70q54 26 84 91q17 39 20.5 63.5t4.5 29.5q2 12 6 18t15 8l-4 16q-34 -8 -93 -20l-121 -25q-64 -14 -92 -37q-31 -26 -31 -68q0 -46 33 -72t84 -26q50 0 94 22zM736 27q-60 37 -93.5 102t-33.5 145q0 77 32 142t91.5 104t137.5 39q69 0 126.5 -32
t93.5 -92t40 -142q1 -9 1 -30h-384q-57 0 -82 2l-4 -15q9 -2 12.5 -9.5t7.5 -23.5q5 -21 8 -30q22 -65 70.5 -102t111.5 -37q65 0 112 35t67 90h69q-25 -81 -89 -132t-159 -51q-75 0 -135 37zM712.5 314q14.5 2 34.5 2h255q18 0 31 -2t32 -11l10 14q-8 8 -13 30
q-7 25 -12 37q-23 55 -71 86t-108 31t-105.5 -29.5t-68.5 -83.5q-6 -13 -13 -40q-3 -10 -6.5 -18t-8.5 -13l9 -14q20 9 34.5 11z" />
    <glyph glyph-name="ccedilla" unicode="&#xe7;" horiz-adv-x="591" 
d="M273 -56l7 -9q15 3 31 3q17 0 33 -3q35 -6 58 -24.5t23 -50.5q0 -41 -32.5 -62.5t-86.5 -21.5q-43 0 -91 14v30q46 -19 88 -19q38 0 59.5 15t21.5 43q0 30 -24 43.5t-69 18.5q-28 2 -57 2l51 68q-69 6 -123 44.5t-84 101t-30 140.5q0 80 33.5 144t93.5 101t135 37
q89 0 152 -46t82 -124h-70q-15 51 -59.5 81.5t-104.5 30.5q-56 0 -101 -29t-70.5 -80t-25.5 -115q0 -66 25.5 -118t70.5 -81.5t101 -29.5q64 0 109.5 34.5t57.5 90.5h71q-16 -81 -77 -130t-147 -53q-20 -22 -51 -46z" />
    <glyph glyph-name="egrave" unicode="&#xe8;" horiz-adv-x="617" 
d="M175 27q-60 37 -93.5 102t-33.5 145q0 77 32 142t91.5 104t137.5 39q69 0 126.5 -32t93.5 -92t40 -142q1 -9 1 -30h-384q-57 0 -82 2l-4 -15q9 -2 12.5 -9.5t7.5 -23.5q5 -21 8 -30q22 -65 70.5 -102t111.5 -37q65 0 112 35t67 90h69q-25 -81 -89 -132t-159 -51
q-75 0 -135 37zM151.5 314q14.5 2 34.5 2h255q18 0 31 -2t32 -11l10 14q-8 8 -13 30q-7 25 -12 37q-23 55 -71 86t-108 31t-105.5 -29.5t-68.5 -83.5q-6 -13 -13 -40q-3 -10 -6.5 -18t-8.5 -13l9 -14q20 9 34.5 11zM342 609h-57l-136 154h76z" />
    <glyph glyph-name="eacute" unicode="&#xe9;" horiz-adv-x="617" 
d="M175 27q-60 37 -93.5 102t-33.5 145q0 77 32 142t91.5 104t137.5 39q69 0 126.5 -32t93.5 -92t40 -142q1 -9 1 -30h-384q-57 0 -82 2l-4 -15q9 -2 12.5 -9.5t7.5 -23.5q5 -21 8 -30q22 -65 70.5 -102t111.5 -37q65 0 112 35t67 90h69q-25 -81 -89 -132t-159 -51
q-75 0 -135 37zM151.5 314q14.5 2 34.5 2h255q18 0 31 -2t32 -11l10 14q-8 8 -13 30q-7 25 -12 37q-23 55 -71 86t-108 31t-105.5 -29.5t-68.5 -83.5q-6 -13 -13 -40q-3 -10 -6.5 -18t-8.5 -13l9 -14q20 9 34.5 11zM274 609l117 154h76l-136 -154h-57z" />
    <glyph glyph-name="ecircumflex" unicode="&#xea;" horiz-adv-x="617" 
d="M175 27q-60 37 -93.5 102t-33.5 145q0 77 32 142t91.5 104t137.5 39q69 0 126.5 -32t93.5 -92t40 -142q1 -9 1 -30h-384q-57 0 -82 2l-4 -15q9 -2 12.5 -9.5t7.5 -23.5q5 -21 8 -30q22 -65 70.5 -102t111.5 -37q65 0 112 35t67 90h69q-25 -81 -89 -132t-159 -51
q-75 0 -135 37zM151.5 314q14.5 2 34.5 2h255q18 0 31 -2t32 -11l10 14q-8 8 -13 30q-7 25 -12 37q-23 55 -71 86t-108 31t-105.5 -29.5t-68.5 -83.5q-6 -13 -13 -40q-3 -10 -6.5 -18t-8.5 -13l9 -14q20 9 34.5 11zM301 780h14l157 -161h-72l-57 61q-28 30 -28 50h-14
q0 -20 -28 -50l-57 -61h-72z" />
    <glyph glyph-name="edieresis" unicode="&#xeb;" horiz-adv-x="617" 
d="M175 27q-60 37 -93.5 102t-33.5 145q0 77 32 142t91.5 104t137.5 39q69 0 126.5 -32t93.5 -92t40 -142q1 -9 1 -30h-384q-57 0 -82 2l-4 -15q9 -2 12.5 -9.5t7.5 -23.5q5 -21 8 -30q22 -65 70.5 -102t111.5 -37q65 0 112 35t67 90h69q-25 -81 -89 -132t-159 -51
q-75 0 -135 37zM151.5 314q14.5 2 34.5 2h255q18 0 31 -2t32 -11l10 14q-8 8 -13 30q-7 25 -12 37q-23 55 -71 86t-108 31t-105.5 -29.5t-68.5 -83.5q-6 -13 -13 -40q-3 -10 -6.5 -18t-8.5 -13l9 -14q20 9 34.5 11zM177.5 690.5q-14.5 14.5 -14.5 34.5t14.5 34t34.5 14
t34.5 -14t14.5 -34t-14.5 -34.5t-34.5 -14.5t-34.5 14.5zM369.5 690.5q-14.5 14.5 -14.5 34.5t14.5 34t34.5 14t34.5 -14t14.5 -34t-14.5 -34.5t-34.5 -14.5t-34.5 14.5z" />
    <glyph glyph-name="igrave" unicode="&#xec;" horiz-adv-x="209" 
d="M72 0v549h65v-549h-65zM139 609h-57l-136 154h76z" />
    <glyph glyph-name="iacute" unicode="&#xed;" horiz-adv-x="209" 
d="M72 0v549h65v-549h-65zM71 609l117 154h76l-136 -154h-57z" />
    <glyph glyph-name="icircumflex" unicode="&#xee;" horiz-adv-x="209" 
d="M72 0v549h65v-549h-65zM98 780h14l157 -161h-72l-57 61q-28 30 -28 50h-14q0 -20 -28 -50l-57 -61h-72z" />
    <glyph glyph-name="idieresis" unicode="&#xef;" horiz-adv-x="209" 
d="M72 0v549h65v-549h-65zM-25.5 690.5q-14.5 14.5 -14.5 34.5t14.5 34t34.5 14t34.5 -14t14.5 -34t-14.5 -34.5t-34.5 -14.5t-34.5 14.5zM166.5 690.5q-14.5 14.5 -14.5 34.5t14.5 34t34.5 14t34.5 -14t14.5 -34t-14.5 -34.5t-34.5 -14.5t-34.5 14.5z" />
    <glyph glyph-name="eth" unicode="&#xf0;" horiz-adv-x="600" 
d="M150 23.5q-54 33.5 -84 91.5t-30 129q0 70 29 125.5t82.5 86.5t123.5 31q72 0 128.5 -33t83.5 -83q3 74 -15 153t-53 122l-163 -93l-23 40l150 85q-46 35 -107 35q-62 0 -110 -31l-32 50q58 39 142 39q98 0 165 -59l75 44l23 -40l-68 -39q40 -55 59.5 -134t19.5 -173
q0 -172 -65.5 -276t-207.5 -104q-69 0 -123 33.5zM372 73.5q44 25.5 68.5 70t24.5 101.5q0 51 -25 93t-68.5 66.5t-97.5 24.5q-50 0 -89.5 -24t-61.5 -66t-22 -94q0 -54 22 -99t61 -71.5t90 -26.5q54 0 98 25.5z" />
    <glyph glyph-name="ntilde" unicode="&#xf1;" horiz-adv-x="558" 
d="M71 549h65v-48q0 -16 -2.5 -26t-9.5 -21l14 -8q31 59 73.5 86t104.5 27q50 0 88 -22.5t60 -61.5q17 -31 22 -65.5t5 -72.5v-337h-65v340q0 71 -24 110q-31 51 -100 51q-63 0 -105 -45q-30 -34 -45.5 -90.5t-15.5 -148.5v-217h-65v549zM304.5 636q-19.5 14 -40.5 40
q-16 20 -27 29t-27 9q-46 0 -52 -84h-50q3 66 31 102t74 36q29 0 48 -13.5t39 -38.5q16 -20 28.5 -30t29.5 -10q20 0 33 23t15 64h53q-5 -71 -29.5 -106t-72.5 -35q-33 0 -52.5 14z" />
    <glyph glyph-name="ograve" unicode="&#xf2;" horiz-adv-x="625" 
d="M176 27q-60 37 -94 102.5t-34 147.5q0 80 34 144t94 101t135 37t135.5 -37t95 -101t34.5 -144q0 -81 -34 -146.5t-94.5 -103t-136.5 -37.5q-75 0 -135 37zM413 78q46 30 72 82t26 117q0 63 -26 114t-71.5 80.5t-102.5 29.5q-56 0 -101.5 -29t-71 -80.5t-25.5 -114.5
q0 -65 26 -117.5t71 -82t101 -29.5t102 30zM346 609h-57l-136 154h76z" />
    <glyph glyph-name="oacute" unicode="&#xf3;" horiz-adv-x="625" 
d="M176 27q-60 37 -94 102.5t-34 147.5q0 80 34 144t94 101t135 37t135.5 -37t95 -101t34.5 -144q0 -81 -34 -146.5t-94.5 -103t-136.5 -37.5q-75 0 -135 37zM413 78q46 30 72 82t26 117q0 63 -26 114t-71.5 80.5t-102.5 29.5q-56 0 -101.5 -29t-71 -80.5t-25.5 -114.5
q0 -65 26 -117.5t71 -82t101 -29.5t102 30zM278 609l117 154h76l-136 -154h-57z" />
    <glyph glyph-name="ocircumflex" unicode="&#xf4;" horiz-adv-x="625" 
d="M176 27q-60 37 -94 102.5t-34 147.5q0 80 34 144t94 101t135 37t135.5 -37t95 -101t34.5 -144q0 -81 -34 -146.5t-94.5 -103t-136.5 -37.5q-75 0 -135 37zM413 78q46 30 72 82t26 117q0 63 -26 114t-71.5 80.5t-102.5 29.5q-56 0 -101.5 -29t-71 -80.5t-25.5 -114.5
q0 -65 26 -117.5t71 -82t101 -29.5t102 30zM305 780h14l157 -161h-72l-57 61q-28 30 -28 50h-14q0 -20 -28 -50l-57 -61h-72z" />
    <glyph glyph-name="otilde" unicode="&#xf5;" horiz-adv-x="625" 
d="M176 27q-60 37 -94 102.5t-34 147.5q0 80 34 144t94 101t135 37t135.5 -37t95 -101t34.5 -144q0 -81 -34 -146.5t-94.5 -103t-136.5 -37.5q-75 0 -135 37zM413 78q46 30 72 82t26 117q0 63 -26 114t-71.5 80.5t-102.5 29.5q-56 0 -101.5 -29t-71 -80.5t-25.5 -114.5
q0 -65 26 -117.5t71 -82t101 -29.5t102 30zM335.5 636q-19.5 14 -40.5 40q-16 20 -27 29t-27 9q-46 0 -52 -84h-50q3 66 31 102t74 36q29 0 48 -13.5t39 -38.5q16 -20 28.5 -30t29.5 -10q20 0 33 23t15 64h53q-5 -71 -29.5 -106t-72.5 -35q-33 0 -52.5 14z" />
    <glyph glyph-name="odieresis" unicode="&#xf6;" horiz-adv-x="625" 
d="M176 27q-60 37 -94 102.5t-34 147.5q0 80 34 144t94 101t135 37t135.5 -37t95 -101t34.5 -144q0 -81 -34 -146.5t-94.5 -103t-136.5 -37.5q-75 0 -135 37zM413 78q46 30 72 82t26 117q0 63 -26 114t-71.5 80.5t-102.5 29.5q-56 0 -101.5 -29t-71 -80.5t-25.5 -114.5
q0 -65 26 -117.5t71 -82t101 -29.5t102 30zM181.5 690.5q-14.5 14.5 -14.5 34.5t14.5 34t34.5 14t34.5 -14t14.5 -34t-14.5 -34.5t-34.5 -14.5t-34.5 14.5zM373.5 690.5q-14.5 14.5 -14.5 34.5t14.5 34t34.5 14t34.5 -14t14.5 -34t-14.5 -34.5t-34.5 -14.5t-34.5 14.5z" />
    <glyph glyph-name="divide" unicode="&#xf7;" horiz-adv-x="450" 
d="M184 472v120h82v-120h-82zM27 311v57h396v-57h-396zM184 76v122h82v-122h-82z" />
    <glyph glyph-name="oslash" unicode="&#xf8;" horiz-adv-x="625" 
d="M576 277q0 -81 -34 -146.5t-94.5 -103t-136.5 -37.5q-52 0 -98 18t-80 52l-49 -48l-35 35l51 51q-52 76 -52 179q0 80 34 144t94 101t135 37q52 0 98 -18t82 -52l49 49l35 -36l-52 -51q53 -75 53 -174zM147 145l300 300q-27 27 -61.5 41.5t-74.5 14.5q-56 0 -101.5 -29
t-71 -80.5t-25.5 -114.5q0 -76 34 -132zM413 78q46 30 72 82t26 117q0 72 -34 128l-300 -300q55 -57 134 -57q56 0 102 30z" />
    <glyph glyph-name="ugrave" unicode="&#xf9;" horiz-adv-x="558" 
d="M154 12.5q-38 22.5 -60 61.5q-17 31 -22 65.5t-5 72.5v337h65v-340q0 -71 24 -110q32 -51 100 -51q63 0 105 45q30 34 45.5 90.5t15.5 148.5v217h65v-549h-65v48q0 16 2.5 26t9.5 21l-14 8q-31 -59 -73.5 -86t-104.5 -27q-50 0 -88 22.5zM313 609h-57l-136 154h76z" />
    <glyph glyph-name="uacute" unicode="&#xfa;" horiz-adv-x="558" 
d="M154 12.5q-38 22.5 -60 61.5q-17 31 -22 65.5t-5 72.5v337h65v-340q0 -71 24 -110q32 -51 100 -51q63 0 105 45q30 34 45.5 90.5t15.5 148.5v217h65v-549h-65v48q0 16 2.5 26t9.5 21l-14 8q-31 -59 -73.5 -86t-104.5 -27q-50 0 -88 22.5zM245 609l117 154h76l-136 -154
h-57z" />
    <glyph glyph-name="ucircumflex" unicode="&#xfb;" horiz-adv-x="558" 
d="M154 12.5q-38 22.5 -60 61.5q-17 31 -22 65.5t-5 72.5v337h65v-340q0 -71 24 -110q32 -51 100 -51q63 0 105 45q30 34 45.5 90.5t15.5 148.5v217h65v-549h-65v48q0 16 2.5 26t9.5 21l-14 8q-31 -59 -73.5 -86t-104.5 -27q-50 0 -88 22.5zM272 780h14l157 -161h-72l-57 61
q-28 30 -28 50h-14q0 -20 -28 -50l-57 -61h-72z" />
    <glyph glyph-name="udieresis" unicode="&#xfc;" horiz-adv-x="558" 
d="M154 12.5q-38 22.5 -60 61.5q-17 31 -22 65.5t-5 72.5v337h65v-340q0 -71 24 -110q32 -51 100 -51q63 0 105 45q30 34 45.5 90.5t15.5 148.5v217h65v-549h-65v48q0 16 2.5 26t9.5 21l-14 8q-31 -59 -73.5 -86t-104.5 -27q-50 0 -88 22.5zM148.5 690.5
q-14.5 14.5 -14.5 34.5t14.5 34t34.5 14t34.5 -14t14.5 -34t-14.5 -34.5t-34.5 -14.5t-34.5 14.5zM340.5 690.5q-14.5 14.5 -14.5 34.5t14.5 34t34.5 14t34.5 -14t14.5 -34t-14.5 -34.5t-34.5 -14.5t-34.5 14.5z" />
    <glyph glyph-name="yacute" unicode="&#xfd;" horiz-adv-x="542" 
d="M67 -155h60q35 0 51.5 11t29.5 43l40 106l-228 544h72l164 -400q10 -23 13.5 -38t3.5 -30h16q0 16 2.5 30.5t11.5 37.5l144 400h72l-248 -672q-21 -55 -50.5 -73t-63.5 -18h-90v59zM237 609l117 154h76l-136 -154h-57z" />
    <glyph glyph-name="thorn" unicode="&#xfe;" horiz-adv-x="623" 
d="M72 763h65v-262q0 -16 -2.5 -26t-9.5 -21l14 -8q73 113 194 113q70 0 125 -36.5t85 -101t30 -146.5q0 -83 -30 -147.5t-84.5 -101t-125.5 -36.5q-121 0 -194 113l-14 -8q7 -11 9.5 -21t2.5 -26v-262h-65v977zM423 77.5q41 29.5 63 81t22 116.5q0 64 -22 115.5t-63 81
t-96 29.5t-98.5 -29.5t-68.5 -81t-25 -115.5t25 -116t68.5 -81.5t98.5 -29.5t96 29.5z" />
    <glyph glyph-name="ydieresis" unicode="&#xff;" horiz-adv-x="542" 
d="M67 -155h60q35 0 51.5 11t29.5 43l40 106l-228 544h72l164 -400q10 -23 13.5 -38t3.5 -30h16q0 16 2.5 30.5t11.5 37.5l144 400h72l-248 -672q-21 -55 -50.5 -73t-63.5 -18h-90v59zM140.5 690.5q-14.5 14.5 -14.5 34.5t14.5 34t34.5 14t34.5 -14t14.5 -34t-14.5 -34.5
t-34.5 -14.5t-34.5 14.5zM332.5 690.5q-14.5 14.5 -14.5 34.5t14.5 34t34.5 14t34.5 -14t14.5 -34t-14.5 -34.5t-34.5 -14.5t-34.5 14.5z" />
    <glyph glyph-name="Amacron" unicode="&#x100;" horiz-adv-x="688" 
d="M16 0l288 763h80l288 -763h-71l-77 206h-360l-77 -206h-71zM502 268l-126 339q-14 36 -19 53.5t-5 39.5h-16q0 -22 -5 -39.5t-19 -53.5l-126 -339h316zM197 885v34h294v-34h-294z" />
    <glyph glyph-name="amacron" unicode="&#x101;" horiz-adv-x="561" 
d="M98 31.5q-50 41.5 -50 114.5t59 115q26 18 57.5 28.5t70.5 18.5l196 39q-3 76 -37 114q-36 40 -112 40q-56 0 -97.5 -31t-51.5 -81h-65q12 79 72.5 124.5t142.5 45.5q103 0 157 -57q56 -59 56 -174v-328h-65v38q0 27 10 60l-14 7q-31 -54 -82 -84q-53 -31 -120 -31
q-77 0 -127 41.5zM324 70q54 26 84 91q17 39 20.5 63.5t4.5 29.5q2 12 6 18t15 8l-4 16q-34 -8 -93 -20l-121 -25q-64 -14 -92 -37q-31 -26 -31 -68q0 -46 33 -72t84 -26q50 0 94 22zM141 671v34h294v-34h-294z" />
    <glyph glyph-name="Abreve" unicode="&#x102;" horiz-adv-x="688" 
d="M16 0l288 763h80l288 -763h-71l-77 206h-360l-77 -206h-71zM502 268l-126 339q-14 36 -19 53.5t-5 39.5h-16q0 -22 -5 -39.5t-19 -53.5l-126 -339h316zM225.5 864.5q-41.5 38.5 -46.5 109.5h48q4 -48 34.5 -75t82.5 -27t81.5 27t33.5 75h49q-4 -71 -46 -109.5t-118 -38.5
q-77 0 -118.5 38.5z" />
    <glyph glyph-name="abreve" unicode="&#x103;" horiz-adv-x="561" 
d="M98 31.5q-50 41.5 -50 114.5t59 115q26 18 57.5 28.5t70.5 18.5l196 39q-3 76 -37 114q-36 40 -112 40q-56 0 -97.5 -31t-51.5 -81h-65q12 79 72.5 124.5t142.5 45.5q103 0 157 -57q56 -59 56 -174v-328h-65v38q0 27 10 60l-14 7q-31 -54 -82 -84q-53 -31 -120 -31
q-77 0 -127 41.5zM324 70q54 26 84 91q17 39 20.5 63.5t4.5 29.5q2 12 6 18t15 8l-4 16q-34 -8 -93 -20l-121 -25q-64 -14 -92 -37q-31 -26 -31 -68q0 -46 33 -72t84 -26q50 0 94 22zM169.5 650.5q-41.5 38.5 -46.5 109.5h48q4 -48 34.5 -75t82.5 -27t81.5 27t33.5 75h49
q-4 -71 -46 -109.5t-118 -38.5q-77 0 -118.5 38.5z" />
    <glyph glyph-name="Aogonek" unicode="&#x104;" horiz-adv-x="688" 
d="M16 0l288 763h80l288 -763h-71l-77 206h-360l-77 -206h-71zM502 268l-126 339q-14 36 -19 53.5t-5 39.5h-16q0 -22 -5 -39.5t-19 -53.5l-126 -339h316zM558 -201.5q-27 22.5 -27 64.5q0 41 25 70.5t79 55.5v11h37q-51 -48 -70.5 -73.5t-19.5 -53.5q0 -26 15 -40.5
t43 -14.5q16 0 32 4v-41q-20 -5 -43 -5q-44 0 -71 22.5z" />
    <glyph glyph-name="aogonek" unicode="&#x105;" horiz-adv-x="561" 
d="M425.5 -73.5q-19.5 -25.5 -19.5 -53.5q0 -26 15 -40.5t43 -14.5q16 0 32 4v-41q-20 -5 -43 -5q-44 0 -71 22.5t-27 64.5q0 41 25 70.5t79 55.5v11h-28v38q0 27 10 60l-14 7q-31 -54 -82 -84q-53 -31 -120 -31q-77 0 -127 41.5t-50 114.5t59 115q26 18 57.5 28.5
t70.5 18.5l196 39q-3 76 -37 114q-36 40 -112 40q-56 0 -97.5 -31t-51.5 -81h-65q12 79 72.5 124.5t142.5 45.5q103 0 157 -57q56 -59 56 -174v-328q-51 -48 -70.5 -73.5zM439 272q4 6 15 8l-4 16q-34 -8 -93 -20l-121 -25q-64 -14 -92 -37q-31 -26 -31 -68q0 -46 33 -72
t84 -26q50 0 94 22q54 26 84 91q17 39 20.5 63.5t4.5 29.5q2 12 6 18z" />
    <glyph glyph-name="Cacute" unicode="&#x106;" horiz-adv-x="733" 
d="M204 43.5q-78 53.5 -116 142.5t-38 196t38 196t116 142t191 53q80 0 142.5 -27t102 -75t51.5 -110h-73q-15 69 -75.5 109.5t-149.5 40.5t-150.5 -42.5t-92.5 -117t-31 -169.5t31 -170t92.5 -117.5t150.5 -42.5q90 0 149.5 43t75.5 121h73q-19 -104 -97 -165t-199 -61
q-113 0 -191 53.5zM360 823l117 154h76l-136 -154h-57z" />
    <glyph glyph-name="cacute" unicode="&#x107;" horiz-adv-x="591" 
d="M175 27q-60 37 -93.5 102.5t-33.5 147.5q0 80 33.5 144t93.5 101t135 37q89 0 152 -46t82 -124h-70q-15 51 -59.5 81.5t-104.5 30.5q-56 0 -101 -29t-70.5 -80t-25.5 -115q0 -66 25.5 -118t70.5 -81.5t101 -29.5q64 0 109.5 34.5t57.5 90.5h71q-17 -84 -82 -133.5
t-156 -49.5q-75 0 -135 37zM280 609l117 154h76l-136 -154h-57z" />
    <glyph glyph-name="Cdotaccent" unicode="&#x10a;" horiz-adv-x="733" 
d="M204 43.5q-78 53.5 -116 142.5t-38 196t38 196t116 142t191 53q80 0 142.5 -27t102 -75t51.5 -110h-73q-15 69 -75.5 109.5t-149.5 40.5t-150.5 -42.5t-92.5 -117t-31 -169.5t31 -170t92.5 -117.5t150.5 -42.5q90 0 149.5 43t75.5 121h73q-19 -104 -97 -165t-199 -61
q-113 0 -191 53.5zM359.5 826.5q-14.5 14.5 -14.5 34.5t14.5 34t34.5 14t34.5 -14t14.5 -34t-14.5 -34.5t-34.5 -14.5t-34.5 14.5z" />
    <glyph glyph-name="cdotaccent" unicode="&#x10b;" horiz-adv-x="591" 
d="M175 27q-60 37 -93.5 102.5t-33.5 147.5q0 80 33.5 144t93.5 101t135 37q89 0 152 -46t82 -124h-70q-15 51 -59.5 81.5t-104.5 30.5q-56 0 -101 -29t-70.5 -80t-25.5 -115q0 -66 25.5 -118t70.5 -81.5t101 -29.5q64 0 109.5 34.5t57.5 90.5h71q-17 -84 -82 -133.5
t-156 -49.5q-75 0 -135 37zM279.5 690.5q-14.5 14.5 -14.5 34.5t14.5 34t34.5 14t34.5 -14t14.5 -34t-14.5 -34.5t-34.5 -14.5t-34.5 14.5z" />
    <glyph glyph-name="Ccaron" unicode="&#x10c;" horiz-adv-x="733" 
d="M204 43.5q-78 53.5 -116 142.5t-38 196t38 196t116 142t191 53q80 0 142.5 -27t102 -75t51.5 -110h-73q-15 69 -75.5 109.5t-149.5 40.5t-150.5 -42.5t-92.5 -117t-31 -169.5t31 -170t92.5 -117.5t150.5 -42.5q90 0 149.5 43t75.5 121h73q-19 -104 -97 -165t-199 -61
q-113 0 -191 53.5zM230 977h72l57 -61q28 -30 28 -50h14q0 20 28 50l57 61h72l-157 -161h-14z" />
    <glyph glyph-name="ccaron" unicode="&#x10d;" horiz-adv-x="591" 
d="M175 27q-60 37 -93.5 102.5t-33.5 147.5q0 80 33.5 144t93.5 101t135 37q89 0 152 -46t82 -124h-70q-15 51 -59.5 81.5t-104.5 30.5q-56 0 -101 -29t-70.5 -80t-25.5 -115q0 -66 25.5 -118t70.5 -81.5t101 -29.5q64 0 109.5 34.5t57.5 90.5h71q-17 -84 -82 -133.5
t-156 -49.5q-75 0 -135 37zM150 763h72l57 -61q28 -30 28 -50h14q0 20 28 50l57 61h72l-157 -161h-14z" />
    <glyph glyph-name="Dcaron" unicode="&#x10e;" horiz-adv-x="723" 
d="M79 763h204q188 0 288.5 -100t100.5 -285q0 -181 -101 -279.5t-289 -98.5h-203v763zM517.5 135.5q86.5 73.5 86.5 242.5q0 166 -84 244.5t-237 78.5h-135v-639h134q149 0 235.5 73.5zM188 977h72l57 -61q28 -30 28 -50h14q0 20 28 50l57 61h72l-157 -161h-14z" />
    <glyph glyph-name="dcaron" unicode="&#x10f;" horiz-adv-x="623" 
d="M165 26.5q-55 36.5 -85 101t-30 146.5q0 83 30 147.5t84.5 101t125.5 36.5q121 0 194 -113l14 8q-7 11 -9.5 21t-2.5 26v262h65v-763h-65v48q0 16 2.5 26t9.5 21l-14 8q-73 -113 -194 -113q-70 0 -125 36.5zM394.5 77.5q43.5 29.5 68.5 81t25 115.5t-25 116t-68.5 81.5
t-98.5 29.5t-96 -29.5t-63 -81t-22 -116.5q0 -64 22 -115.5t63 -81t96 -29.5t98.5 29.5zM711 586q23 30 23 76q0 9 -2 29h-12q-9 -18 -31 -18q-21 0 -35 13.5t-14 35.5t15 36.5t40 14.5q36 0 57 -29t21 -77q0 -57 -31.5 -101t-98.5 -54v36q45 8 68 38z" />
    <glyph glyph-name="Dcroat" unicode="&#x110;" horiz-adv-x="723" 
d="M571.5 663q100.5 -100 100.5 -285q0 -181 -101 -279.5t-289 -98.5h-203v353h-63v57h63v353h204q188 0 288.5 -100zM517.5 135.5q86.5 73.5 86.5 242.5q0 166 -84 244.5t-237 78.5h-135v-291h259v-57h-259v-291h134q149 0 235.5 73.5z" />
    <glyph glyph-name="Emacron" unicode="&#x112;" horiz-adv-x="609" 
d="M79 0v763h486v-62h-417v-287h366v-62h-366v-290h417v-62h-486zM175 885v34h294v-34h-294z" />
    <glyph glyph-name="emacron" unicode="&#x113;" horiz-adv-x="617" 
d="M175 27q-60 37 -93.5 102t-33.5 145q0 77 32 142t91.5 104t137.5 39q69 0 126.5 -32t93.5 -92t40 -142q1 -9 1 -30h-384q-57 0 -82 2l-4 -15q9 -2 12.5 -9.5t7.5 -23.5q5 -21 8 -30q22 -65 70.5 -102t111.5 -37q65 0 112 35t67 90h69q-25 -81 -89 -132t-159 -51
q-75 0 -135 37zM151.5 314q14.5 2 34.5 2h255q18 0 31 -2t32 -11l10 14q-8 8 -13 30q-7 25 -12 37q-23 55 -71 86t-108 31t-105.5 -29.5t-68.5 -83.5q-6 -13 -13 -40q-3 -10 -6.5 -18t-8.5 -13l9 -14q20 9 34.5 11zM161 671v34h294v-34h-294z" />
    <glyph glyph-name="Edotaccent" unicode="&#x116;" horiz-adv-x="609" 
d="M79 0v763h486v-62h-417v-287h366v-62h-366v-290h417v-62h-486zM287.5 826.5q-14.5 14.5 -14.5 34.5t14.5 34t34.5 14t34.5 -14t14.5 -34t-14.5 -34.5t-34.5 -14.5t-34.5 14.5z" />
    <glyph glyph-name="edotaccent" unicode="&#x117;" horiz-adv-x="617" 
d="M175 27q-60 37 -93.5 102t-33.5 145q0 77 32 142t91.5 104t137.5 39q69 0 126.5 -32t93.5 -92t40 -142q1 -9 1 -30h-384q-57 0 -82 2l-4 -15q9 -2 12.5 -9.5t7.5 -23.5q5 -21 8 -30q22 -65 70.5 -102t111.5 -37q65 0 112 35t67 90h69q-25 -81 -89 -132t-159 -51
q-75 0 -135 37zM151.5 314q14.5 2 34.5 2h255q18 0 31 -2t32 -11l10 14q-8 8 -13 30q-7 25 -12 37q-23 55 -71 86t-108 31t-105.5 -29.5t-68.5 -83.5q-6 -13 -13 -40q-3 -10 -6.5 -18t-8.5 -13l9 -14q20 9 34.5 11zM273.5 690.5q-14.5 14.5 -14.5 34.5t14.5 34t34.5 14
t34.5 -14t14.5 -34t-14.5 -34.5t-34.5 -14.5t-34.5 14.5z" />
    <glyph glyph-name="Eogonek" unicode="&#x118;" horiz-adv-x="609" 
d="M79 0v763h486v-62h-417v-287h366v-62h-366v-290h417v-62h-486zM451 -201.5q-27 22.5 -27 64.5q0 41 25 70.5t79 55.5v11h37q-51 -48 -70.5 -73.5t-19.5 -53.5q0 -26 15 -40.5t43 -14.5q16 0 32 4v-41q-20 -5 -43 -5q-44 0 -71 22.5z" />
    <glyph glyph-name="eogonek" unicode="&#x119;" horiz-adv-x="617" 
d="M422 83q47 35 67 90h69q-25 -82 -88 -131q-50 -46 -69 -71.5t-19 -53.5q0 -26 15 -40.5t43 -14.5q16 0 32 4v-41q-20 -5 -43 -5q-44 0 -71 22.5t-27 64.5q0 54 46 91q-34 -8 -67 -8q-75 0 -135 37t-93.5 102t-33.5 145q0 77 32 142t91.5 104t137.5 39q69 0 126.5 -32
t93.5 -92t40 -142q1 -9 1 -30h-384q-57 0 -82 2l-4 -15q9 -2 12.5 -9.5t7.5 -23.5q5 -21 8 -30q22 -65 70.5 -102t111.5 -37q65 0 112 35zM123 348q-3 -10 -6.5 -18t-8.5 -13l9 -14q20 9 34.5 11t34.5 2h255q18 0 31 -2t32 -11l10 14q-8 8 -13 30q-7 25 -12 37
q-23 55 -71 86t-108 31t-105.5 -29.5t-68.5 -83.5q-6 -13 -13 -40z" />
    <glyph glyph-name="Ecaron" unicode="&#x11a;" horiz-adv-x="609" 
d="M79 0v763h486v-62h-417v-287h366v-62h-366v-290h417v-62h-486zM158 977h72l57 -61q28 -30 28 -50h14q0 20 28 50l57 61h72l-157 -161h-14z" />
    <glyph glyph-name="ecaron" unicode="&#x11b;" horiz-adv-x="617" 
d="M175 27q-60 37 -93.5 102t-33.5 145q0 77 32 142t91.5 104t137.5 39q69 0 126.5 -32t93.5 -92t40 -142q1 -9 1 -30h-384q-57 0 -82 2l-4 -15q9 -2 12.5 -9.5t7.5 -23.5q5 -21 8 -30q22 -65 70.5 -102t111.5 -37q65 0 112 35t67 90h69q-25 -81 -89 -132t-159 -51
q-75 0 -135 37zM151.5 314q14.5 2 34.5 2h255q18 0 31 -2t32 -11l10 14q-8 8 -13 30q-7 25 -12 37q-23 55 -71 86t-108 31t-105.5 -29.5t-68.5 -83.5q-6 -13 -13 -40q-3 -10 -6.5 -18t-8.5 -13l9 -14q20 9 34.5 11zM144 763h72l57 -61q28 -30 28 -50h14q0 20 28 50l57 61h72
l-157 -161h-14z" />
    <glyph glyph-name="Gbreve" unicode="&#x11e;" horiz-adv-x="783" 
d="M206 44q-79 54 -117.5 143t-38.5 194q0 106 38.5 195t117.5 143t194 54q123 0 202.5 -58t105.5 -153h-77q-20 69 -80 109t-152 40q-93 0 -156 -45t-93.5 -119.5t-30.5 -163.5q0 -92 31.5 -167t95 -119.5t154.5 -44.5t156 51.5t87 140.5q2 7 3 14.5t2 13.5q6 47 16 57
l-11 11q-8 -7 -23.5 -8.5t-29 -1.5h-17.5h-119v62h256v-392h-64v147h-16q0 -30 -16.5 -53t-43.5 -45q-35 -28 -83.5 -43.5t-95.5 -15.5q-116 0 -195 54zM281.5 864.5q-41.5 38.5 -46.5 109.5h48q4 -48 34.5 -75t82.5 -27t81.5 27t33.5 75h49q-4 -71 -46 -109.5t-118 -38.5
q-77 0 -118.5 38.5z" />
    <glyph glyph-name="gbreve" unicode="&#x11f;" horiz-adv-x="622" 
d="M66 -56h65q17 -56 58.5 -83t117.5 -27q93 0 136 41t43 121v52q0 16 2.5 26t9.5 21l-14 8q-73 -113 -194 -113q-70 0 -125 36.5t-85 101.5t-30 148q0 82 30 146.5t85 100.5t125 36q121 0 194 -113l12 5q-10 33 -10 60v38h65v-542q0 -121 -62.5 -176t-180.5 -55
q-198 0 -242 168zM394.5 77.5q43.5 29.5 68.5 81t25 115.5t-25 116t-68.5 81.5t-98.5 29.5q-56 0 -97 -29.5t-62.5 -81t-21.5 -116.5q0 -64 22 -115.5t63 -81t96 -29.5t98.5 29.5zM203.5 650.5q-41.5 38.5 -46.5 109.5h48q4 -48 34.5 -75t82.5 -27t81.5 27t33.5 75h49
q-4 -71 -46 -109.5t-118 -38.5q-77 0 -118.5 38.5z" />
    <glyph glyph-name="Gdotaccent" unicode="&#x120;" horiz-adv-x="783" 
d="M206 44q-79 54 -117.5 143t-38.5 194q0 106 38.5 195t117.5 143t194 54q123 0 202.5 -58t105.5 -153h-77q-20 69 -80 109t-152 40q-93 0 -156 -45t-93.5 -119.5t-30.5 -163.5q0 -92 31.5 -167t95 -119.5t154.5 -44.5t156 51.5t87 140.5q2 7 3 14.5t2 13.5q6 47 16 57
l-11 11q-8 -7 -23.5 -8.5t-29 -1.5h-17.5h-119v62h256v-392h-64v147h-16q0 -30 -16.5 -53t-43.5 -45q-35 -28 -83.5 -43.5t-95.5 -15.5q-116 0 -195 54zM365.5 826.5q-14.5 14.5 -14.5 34.5t14.5 34t34.5 14t34.5 -14t14.5 -34t-14.5 -34.5t-34.5 -14.5t-34.5 14.5z" />
    <glyph glyph-name="gdotaccent" unicode="&#x121;" horiz-adv-x="622" 
d="M66 -56h65q17 -56 58.5 -83t117.5 -27q93 0 136 41t43 121v52q0 16 2.5 26t9.5 21l-14 8q-73 -113 -194 -113q-70 0 -125 36.5t-85 101.5t-30 148q0 82 30 146.5t85 100.5t125 36q121 0 194 -113l12 5q-10 33 -10 60v38h65v-542q0 -121 -62.5 -176t-180.5 -55
q-198 0 -242 168zM394.5 77.5q43.5 29.5 68.5 81t25 115.5t-25 116t-68.5 81.5t-98.5 29.5q-56 0 -97 -29.5t-62.5 -81t-21.5 -116.5q0 -64 22 -115.5t63 -81t96 -29.5t98.5 29.5zM287.5 690.5q-14.5 14.5 -14.5 34.5t14.5 34t34.5 14t34.5 -14t14.5 -34t-14.5 -34.5
t-34.5 -14.5t-34.5 14.5z" />
    <glyph glyph-name="uni0122" unicode="&#x122;" horiz-adv-x="783" 
d="M206 44q-79 54 -117.5 143t-38.5 194q0 106 38.5 195t117.5 143t194 54q123 0 202.5 -58t105.5 -153h-77q-20 69 -80 109t-152 40q-93 0 -156 -45t-93.5 -119.5t-30.5 -163.5q0 -92 31.5 -167t95 -119.5t154.5 -44.5t156 51.5t87 140.5q2 7 3 14.5t2 13.5q6 47 16 57
l-11 11q-8 -7 -23.5 -8.5t-29 -1.5h-17.5h-119v62h256v-392h-64v147h-16q0 -30 -16.5 -53t-43.5 -45q-35 -28 -83.5 -43.5t-95.5 -15.5q-116 0 -195 54zM404.5 -180q19.5 12 19.5 34q0 11 -4 24h-9q-8 -15 -25 -15t-28 11t-11 29t12 29t32 11q29 0 45.5 -23t16.5 -61
q0 -33 -24.5 -53t-78.5 -20v22q35 0 54.5 12z" />
    <glyph glyph-name="uni0123" unicode="&#x123;" horiz-adv-x="622" 
d="M66 -56h65q17 -56 58.5 -83t117.5 -27q93 0 136 41t43 121v52q0 16 2.5 26t9.5 21l-14 8q-73 -113 -194 -113q-70 0 -125 36.5t-85 101.5t-30 148q0 82 30 146.5t85 100.5t125 36q121 0 194 -113l12 5q-10 33 -10 60v38h65v-542q0 -121 -62.5 -176t-180.5 -55
q-198 0 -242 168zM394.5 77.5q43.5 29.5 68.5 81t25 115.5t-25 116t-68.5 81.5t-98.5 29.5q-56 0 -97 -29.5t-62.5 -81t-21.5 -116.5q0 -64 22 -115.5t63 -81t96 -29.5t98.5 29.5zM304 604q-17 21 -17 55q0 40 25.5 71.5t79.5 39.5v-26q-36 -6 -55 -27.5t-19 -55.5
q0 -5 2 -19h10q7 12 25 12q17 0 28 -9.5t11 -25.5q0 -15 -12 -25.5t-32 -10.5q-29 0 -46 21z" />
    <glyph glyph-name="Imacron" unicode="&#x12a;" horiz-adv-x="228" 
d="M79 0v763h69v-763h-69zM-33 885v34h294v-34h-294z" />
    <glyph glyph-name="imacron" unicode="&#x12b;" horiz-adv-x="209" 
d="M72 0v549h65v-549h-65zM-42 671v34h294v-34h-294z" />
    <glyph glyph-name="Iogonek" unicode="&#x12e;" horiz-adv-x="228" 
d="M79 0v763h69v-763h-69zM34 -201.5q-27 22.5 -27 64.5q0 41 25 70.5t79 55.5v11h37q-51 -48 -70.5 -73.5t-19.5 -53.5q0 -26 15 -40.5t43 -14.5q16 0 32 4v-41q-20 -5 -43 -5q-44 0 -71 22.5z" />
    <glyph glyph-name="iogonek" unicode="&#x12f;" horiz-adv-x="209" 
d="M72 0v549h65v-549h-65zM70.5 690.5q-14.5 14.5 -14.5 34.5t14.5 34t34.5 14t34.5 -14t14.5 -34t-14.5 -34.5t-34.5 -14.5t-34.5 14.5zM23 -201.5q-27 22.5 -27 64.5q0 41 25 70.5t79 55.5v11h37q-51 -48 -70.5 -73.5t-19.5 -53.5q0 -26 15 -40.5t43 -14.5q16 0 32 4v-41
q-20 -5 -43 -5q-44 0 -71 22.5z" />
    <glyph glyph-name="Idotaccent" unicode="&#x130;" horiz-adv-x="228" 
d="M79 0v763h69v-763h-69zM79.5 826.5q-14.5 14.5 -14.5 34.5t14.5 34t34.5 14t34.5 -14t14.5 -34t-14.5 -34.5t-34.5 -14.5t-34.5 14.5z" />
    <glyph glyph-name="dotlessi" unicode="&#x131;" horiz-adv-x="209" 
d="M72 0v549h65v-549h-65z" />
    <glyph glyph-name="uni0136" unicode="&#x136;" horiz-adv-x="612" 
d="M79 763h69v-357h16q0 14 10 27.5t25 28.5l293 301h85l-356 -366l378 -397h-92l-308 326q-11 12 -26 30t-24 32l-14 -10q9 -11 11 -19.5t2 -34.5v-324h-69v763zM303.5 -180q19.5 12 19.5 34q0 11 -4 24h-9q-8 -15 -25 -15t-28 11t-11 29t12 29t32 11q29 0 45.5 -23
t16.5 -61q0 -33 -24.5 -53t-78.5 -20v22q35 0 54.5 12z" />
    <glyph glyph-name="uni0137" unicode="&#x137;" horiz-adv-x="536" 
d="M72 763h65v-371q0 -17 -1.5 -30.5t-8.5 -31.5l12 -6q18 17 28 25.5t16 13.5l219 186h92l-250 -210q-8 -6 -17.5 -13t-22.5 -12v-14q22 -11 40 -29l276 -271h-90l-247 246l-44 43l-12 -7q7 -15 8.5 -27t1.5 -27v-228h-65v763zM260.5 -180q19.5 12 19.5 34q0 11 -4 24h-9
q-8 -15 -25 -15t-28 11t-11 29t12 29t32 11q29 0 45.5 -23t16.5 -61q0 -33 -24.5 -53t-78.5 -20v22q35 0 54.5 12z" />
    <glyph glyph-name="kgreenlandic" unicode="&#x138;" horiz-adv-x="536" 
d="M72 549h65v-157q0 -17 -1.5 -30.5t-8.5 -31.5l12 -6q18 17 28 25.5t16 13.5l219 186h92l-250 -210q-8 -6 -17.5 -13t-22.5 -12v-14q22 -11 40 -29l276 -271h-90l-247 246l-44 43l-12 -7q7 -15 8.5 -27t1.5 -27v-228h-65v549z" />
    <glyph glyph-name="Lacute" unicode="&#x139;" horiz-adv-x="513" 
d="M79 0v763h69v-701h350v-62h-419zM80 823l117 154h76l-136 -154h-57z" />
    <glyph glyph-name="lacute" unicode="&#x13a;" horiz-adv-x="263" 
d="M96.5 28q-27.5 28 -27.5 100v635h65v-625q0 -44 11.5 -62t51.5 -18h36v-58h-50q-59 0 -86.5 28zM68 823l117 154h76l-136 -154h-57z" />
    <glyph glyph-name="uni013B" unicode="&#x13b;" horiz-adv-x="513" 
d="M79 0v763h69v-701h350v-62h-419zM293.5 -180q19.5 12 19.5 34q0 11 -4 24h-9q-8 -15 -25 -15t-28 11t-11 29t12 29t32 11q29 0 45.5 -23t16.5 -61q0 -33 -24.5 -53t-78.5 -20v22q35 0 54.5 12z" />
    <glyph glyph-name="uni013C" unicode="&#x13c;" horiz-adv-x="263" 
d="M96.5 28q-27.5 28 -27.5 100v635h65v-625q0 -44 11.5 -62t51.5 -18h36v-58h-50q-59 0 -86.5 28zM122.5 -180q19.5 12 19.5 34q0 11 -4 24h-9q-8 -15 -25 -15t-28 11t-11 29t12 29t32 11q29 0 45.5 -23t16.5 -61q0 -33 -24.5 -53t-78.5 -20v22q35 0 54.5 12z" />
    <glyph glyph-name="Lcaron" unicode="&#x13d;" horiz-adv-x="513" 
d="M79 0v763h69v-701h350v-62h-419zM427 586q23 30 23 76q0 9 -2 29h-12q-9 -18 -31 -18q-21 0 -35 13.5t-14 35.5t15 36.5t40 14.5q36 0 57 -29t21 -77q0 -57 -31.5 -101t-98.5 -54v36q45 8 68 38z" />
    <glyph glyph-name="lcaron" unicode="&#x13e;" horiz-adv-x="263" 
d="M96.5 28q-27.5 28 -27.5 100v635h65v-625q0 -44 11.5 -62t51.5 -18h36v-58h-50q-59 0 -86.5 28zM279 586q23 30 23 76q0 9 -2 29h-12q-9 -18 -31 -18q-21 0 -35 13.5t-14 35.5t15 36.5t40 14.5q36 0 57 -29t21 -77q0 -57 -31.5 -101t-98.5 -54v36q45 8 68 38z" />
    <glyph glyph-name="Lslash" unicode="&#x141;" horiz-adv-x="560" 
d="M113 0v353l-73 -38v63l73 38v347h69v-312l217 112v-62l-217 -113v-326h350v-62h-419z" />
    <glyph glyph-name="lslash" unicode="&#x142;" horiz-adv-x="263" 
d="M233 58v-58h-50q-59 0 -86.5 28t-27.5 100v311l-57 -30v46l57 30v278h65v-245l90 47v-46l-90 -47v-334q0 -44 11.5 -62t51.5 -18h36z" />
    <glyph glyph-name="Nacute" unicode="&#x143;" horiz-adv-x="704" 
d="M79 763h106l323 -609q25 -47 39 -93l15 3q-6 41 -6 89v610h68v-763h-106l-323 609q-13 24 -20.5 42t-15.5 46l-15 -3q4 -40 4 -85v-609h-69v763zM318 823l117 154h76l-136 -154h-57z" />
    <glyph glyph-name="nacute" unicode="&#x144;" horiz-adv-x="558" 
d="M71 549h65v-48q0 -16 -2.5 -26t-9.5 -21l14 -8q31 59 73.5 86t104.5 27q50 0 88 -22.5t60 -61.5q17 -31 22 -65.5t5 -72.5v-337h-65v340q0 71 -24 110q-31 51 -100 51q-63 0 -105 -45q-30 -34 -45.5 -90.5t-15.5 -148.5v-217h-65v549zM247 609l117 154h76l-136 -154h-57z
" />
    <glyph glyph-name="uni0145" unicode="&#x145;" horiz-adv-x="704" 
d="M79 763h106l323 -609q25 -47 39 -93l15 3q-6 41 -6 89v610h68v-763h-106l-323 609q-13 24 -20.5 42t-15.5 46l-15 -3q4 -40 4 -85v-609h-69v763zM356.5 -180q19.5 12 19.5 34q0 11 -4 24h-9q-8 -15 -25 -15t-28 11t-11 29t12 29t32 11q29 0 45.5 -23t16.5 -61
q0 -33 -24.5 -53t-78.5 -20v22q35 0 54.5 12z" />
    <glyph glyph-name="uni0146" unicode="&#x146;" horiz-adv-x="558" 
d="M71 549h65v-48q0 -16 -2.5 -26t-9.5 -21l14 -8q31 59 73.5 86t104.5 27q50 0 88 -22.5t60 -61.5q17 -31 22 -65.5t5 -72.5v-337h-65v340q0 71 -24 110q-31 51 -100 51q-63 0 -105 -45q-30 -34 -45.5 -90.5t-15.5 -148.5v-217h-65v549zM285.5 -180q19.5 12 19.5 34
q0 11 -4 24h-9q-8 -15 -25 -15t-28 11t-11 29t12 29t32 11q29 0 45.5 -23t16.5 -61q0 -33 -24.5 -53t-78.5 -20v22q35 0 54.5 12z" />
    <glyph glyph-name="Ncaron" unicode="&#x147;" horiz-adv-x="704" 
d="M79 763h106l323 -609q25 -47 39 -93l15 3q-6 41 -6 89v610h68v-763h-106l-323 609q-13 24 -20.5 42t-15.5 46l-15 -3q4 -40 4 -85v-609h-69v763zM188 977h72l57 -61q28 -30 28 -50h14q0 20 28 50l57 61h72l-157 -161h-14z" />
    <glyph glyph-name="ncaron" unicode="&#x148;" horiz-adv-x="558" 
d="M71 549h65v-48q0 -16 -2.5 -26t-9.5 -21l14 -8q31 59 73.5 86t104.5 27q50 0 88 -22.5t60 -61.5q17 -31 22 -65.5t5 -72.5v-337h-65v340q0 71 -24 110q-31 51 -100 51q-63 0 -105 -45q-30 -34 -45.5 -90.5t-15.5 -148.5v-217h-65v549zM117 763h72l57 -61q28 -30 28 -50
h14q0 20 28 50l57 61h72l-157 -161h-14z" />
    <glyph glyph-name="Omacron" unicode="&#x14c;" horiz-adv-x="794" 
d="M206 43q-78 53 -117 142.5t-39 196.5t39 196t117 142t191 53t191 -53t117 -142t39 -196t-39 -196.5t-117 -142.5t-191 -53t-191 53zM548.5 95q62.5 43 94.5 117.5t32 169.5t-32 169.5t-94.5 117t-151.5 42.5t-151.5 -42.5t-94.5 -117t-32 -169.5t32 -169.5t94.5 -117.5
t151.5 -43t151.5 43zM251 885v34h294v-34h-294z" />
    <glyph glyph-name="omacron" unicode="&#x14d;" horiz-adv-x="625" 
d="M176 27q-60 37 -94 102.5t-34 147.5q0 80 34 144t94 101t135 37t135.5 -37t95 -101t34.5 -144q0 -81 -34 -146.5t-94.5 -103t-136.5 -37.5q-75 0 -135 37zM413 78q46 30 72 82t26 117q0 63 -26 114t-71.5 80.5t-102.5 29.5q-56 0 -101.5 -29t-71 -80.5t-25.5 -114.5
q0 -65 26 -117.5t71 -82t101 -29.5t102 30zM165 671v34h294v-34h-294z" />
    <glyph glyph-name="Ohungarumlaut" unicode="&#x150;" horiz-adv-x="794" 
d="M206 43q-78 53 -117 142.5t-39 196.5t39 196t117 142t191 53t191 -53t117 -142t39 -196t-39 -196.5t-117 -142.5t-191 -53t-191 53zM548.5 95q62.5 43 94.5 117.5t32 169.5t-32 169.5t-94.5 117t-151.5 42.5t-151.5 -42.5t-94.5 -117t-32 -169.5t32 -169.5t94.5 -117.5
t151.5 -43t151.5 43zM281 823l118 154h75l-136 -154h-57zM457 823l119 154h78l-139 -154h-58z" />
    <glyph glyph-name="ohungarumlaut" unicode="&#x151;" horiz-adv-x="625" 
d="M176 27q-60 37 -94 102.5t-34 147.5q0 80 34 144t94 101t135 37t135.5 -37t95 -101t34.5 -144q0 -81 -34 -146.5t-94.5 -103t-136.5 -37.5q-75 0 -135 37zM413 78q46 30 72 82t26 117q0 63 -26 114t-71.5 80.5t-102.5 29.5q-56 0 -101.5 -29t-71 -80.5t-25.5 -114.5
q0 -65 26 -117.5t71 -82t101 -29.5t102 30zM195 609l118 154h75l-136 -154h-57zM371 609l119 154h78l-139 -154h-58z" />
    <glyph glyph-name="OE" unicode="&#x152;" horiz-adv-x="1206" 
d="M206 43q-78 53 -117 142.5t-39 196.5t39 196t117 142t191 53q90 0 158.5 -36t118.5 -107l12 3q-7 28 -8.5 46t-1.5 40v44h486v-62h-417v-287h366v-61h-366v-291h417v-62h-486v49q0 20 1.5 34.5t8.5 34.5l-10 7q-107 -135 -279 -135q-113 0 -191 53zM549.5 94.5
q62.5 42.5 94 117.5t31.5 170t-31.5 169.5t-94 117t-152.5 42.5q-89 0 -151.5 -42.5t-94.5 -117t-32 -169.5t32 -169.5t94.5 -117.5t151.5 -43q90 0 152.5 42.5z" />
    <glyph glyph-name="oe" unicode="&#x153;" horiz-adv-x="1242" 
d="M176 27q-60 37 -94 102.5t-34 147.5q0 80 34 144t94 101t135 37t135.5 -37t95 -101t34.5 -144q0 -81 -34 -146.5t-94.5 -103t-136.5 -37.5q-75 0 -135 37zM413 78q46 30 72 82t26 117q0 63 -26 114t-71.5 80.5t-102.5 29.5q-56 0 -101.5 -29t-71 -80.5t-25.5 -114.5
q0 -65 26 -117.5t71 -82t101 -29.5t102 30zM800 27q-60 37 -93.5 102t-33.5 145q0 77 32 142t91.5 104t137.5 39q69 0 126.5 -32t93.5 -92t40 -142q1 -9 1 -30h-384q-57 0 -82 2l-4 -15q9 -2 12.5 -9.5t7.5 -23.5q5 -21 8 -30q22 -65 70.5 -102t111.5 -37q65 0 112 35t67 90
h69q-25 -81 -89 -132t-159 -51q-75 0 -135 37zM776.5 314q14.5 2 34.5 2h255q18 0 31 -2t32 -11l10 14q-8 8 -13 30q-7 25 -12 37q-23 55 -71 86t-108 31t-105.5 -29.5t-68.5 -83.5q-6 -13 -13 -40q-3 -10 -6.5 -18t-8.5 -13l9 -14q20 9 34.5 11z" />
    <glyph glyph-name="Racute" unicode="&#x154;" horiz-adv-x="639" 
d="M79 763h264q113 0 177.5 -55.5t64.5 -159.5q0 -115 -87 -177q-8 -6 -23 -10.5t-28 -4.5q-7 0 -10 1l-6 -13q13 -10 28 -43l133 -301h-74l-144 332h-226v-332h-69v763zM469.5 432q47.5 40 47.5 114t-48 114.5t-135 40.5h-186v-309h186q88 0 135.5 40zM276 823l117 154h76
l-136 -154h-57z" />
    <glyph glyph-name="racute" unicode="&#x155;" horiz-adv-x="345" 
d="M71 549h65v-48q0 -16 -2.5 -26t-9.5 -21l14 -8q25 59 65 86t102 27h18v-64h-25q-79 0 -117 -48q-24 -30 -34.5 -73t-10.5 -106v-268h-65v549zM125 609l117 154h76l-136 -154h-57z" />
    <glyph glyph-name="uni0156" unicode="&#x156;" horiz-adv-x="639" 
d="M79 763h264q113 0 177.5 -55.5t64.5 -159.5q0 -115 -87 -177q-8 -6 -23 -10.5t-28 -4.5q-7 0 -10 1l-6 -13q13 -10 28 -43l133 -301h-74l-144 332h-226v-332h-69v763zM469.5 432q47.5 40 47.5 114t-48 114.5t-135 40.5h-186v-309h186q88 0 135.5 40zM337.5 -180
q19.5 12 19.5 34q0 11 -4 24h-9q-8 -15 -25 -15t-28 11t-11 29t12 29t32 11q29 0 45.5 -23t16.5 -61q0 -33 -24.5 -53t-78.5 -20v22q35 0 54.5 12z" />
    <glyph glyph-name="uni0157" unicode="&#x157;" horiz-adv-x="345" 
d="M71 549h65v-48q0 -16 -2.5 -26t-9.5 -21l14 -8q25 59 65 86t102 27h18v-64h-25q-79 0 -117 -48q-24 -30 -34.5 -73t-10.5 -106v-268h-65v549zM108.5 -180q19.5 12 19.5 34q0 11 -4 24h-9q-8 -15 -25 -15t-28 11t-11 29t12 29t32 11q29 0 45.5 -23t16.5 -61
q0 -33 -24.5 -53t-78.5 -20v22q35 0 54.5 12z" />
    <glyph glyph-name="Rcaron" unicode="&#x158;" horiz-adv-x="639" 
d="M79 763h264q113 0 177.5 -55.5t64.5 -159.5q0 -115 -87 -177q-8 -6 -23 -10.5t-28 -4.5q-7 0 -10 1l-6 -13q13 -10 28 -43l133 -301h-74l-144 332h-226v-332h-69v763zM469.5 432q47.5 40 47.5 114t-48 114.5t-135 40.5h-186v-309h186q88 0 135.5 40zM146 977h72l57 -61
q28 -30 28 -50h14q0 20 28 50l57 61h72l-157 -161h-14z" />
    <glyph glyph-name="rcaron" unicode="&#x159;" horiz-adv-x="345" 
d="M71 549h65v-48q0 -16 -2.5 -26t-9.5 -21l14 -8q25 59 65 86t102 27h18v-64h-25q-79 0 -117 -48q-24 -30 -34.5 -73t-10.5 -106v-268h-65v549zM-5 763h72l57 -61q28 -30 28 -50h14q0 20 28 50l57 61h72l-157 -161h-14z" />
    <glyph glyph-name="Sacute" unicode="&#x15a;" horiz-adv-x="653" 
d="M142 46q-81 56 -99 170h70q15 -87 79.5 -125.5t151.5 -38.5q91 0 141 42t50 116q0 54 -29 85t-72 46t-116 31q-81 17 -129.5 35t-82 57.5t-33.5 107.5q0 60 32 106t88.5 70.5t127.5 24.5q105 0 173 -51.5t85 -159.5h-66q-29 149 -193 149q-79 0 -128.5 -36.5t-49.5 -97.5
q0 -47 27 -74.5t67 -41.5t109 -29q83 -18 135 -37.5t88 -63t36 -118.5q0 -102 -69 -162.5t-196 -60.5q-116 0 -197 56zM292 823l117 154h76l-136 -154h-57z" />
    <glyph glyph-name="sacute" unicode="&#x15b;" horiz-adv-x="543" 
d="M118.5 38.5q-62.5 48.5 -73.5 134.5h66q8 -59 52.5 -92t124.5 -33q65 0 102.5 26t37.5 73q0 37 -22.5 58.5t-55.5 32t-89 21.5q-63 13 -102 26t-66 42t-27 79q0 72 54.5 112.5t140.5 40.5q88 0 144.5 -46t69.5 -124h-65q-9 54 -48 83t-101 29q-61 0 -95.5 -23.5
t-34.5 -64.5q0 -31 20.5 -50t51 -28.5t83.5 -19.5q67 -14 108 -28t70 -46t29 -88q0 -75 -54.5 -119t-153.5 -44q-104 0 -166.5 48.5zM237 609l117 154h76l-136 -154h-57z" />
    <glyph glyph-name="Scedilla" unicode="&#x15e;" horiz-adv-x="653" 
d="M285 -56l7 -9q15 3 31 3q17 0 33 -3q35 -6 58 -24.5t23 -50.5q0 -41 -32.5 -62.5t-86.5 -21.5q-43 0 -91 14v30q46 -19 88 -19q38 0 59.5 15t21.5 43q0 30 -24 43.5t-69 18.5q-28 2 -57 2l51 69q-101 10 -169.5 65t-84.5 159h70q15 -87 79.5 -125.5t151.5 -38.5
q91 0 141 42t50 116q0 54 -29 85t-72 46t-116 31q-81 17 -129.5 35t-82 57.5t-33.5 107.5q0 60 32 106t88.5 70.5t127.5 24.5q105 0 173 -51.5t85 -159.5h-66q-29 149 -193 149q-79 0 -128.5 -36.5t-49.5 -97.5q0 -47 27 -74.5t67 -41.5t109 -29q83 -18 135 -37.5t88 -63
t36 -118.5q0 -102 -69 -162.5t-196 -60.5h-4q-23 -25 -50 -46z" />
    <glyph glyph-name="scedilla" unicode="&#x15f;" horiz-adv-x="543" 
d="M230 -56l7 -9q15 3 31 3q17 0 33 -3q35 -6 58 -24.5t23 -50.5q0 -41 -32.5 -62.5t-86.5 -21.5q-43 0 -91 14v30q46 -19 88 -19q38 0 59.5 15t21.5 43q0 30 -24 43.5t-69 18.5q-28 2 -57 2l51 69q-85 10 -136 57t-61 124h66q8 -59 52.5 -92t124.5 -33q65 0 102.5 26
t37.5 73q0 37 -22.5 58.5t-55.5 32t-89 21.5q-63 13 -102 26t-66 42t-27 79q0 72 54.5 112.5t140.5 40.5q88 0 144.5 -46t69.5 -124h-65q-9 54 -48 83t-101 29q-61 0 -95.5 -23.5t-34.5 -64.5q0 -31 20.5 -50t51 -28.5t83.5 -19.5q67 -14 108 -28t70 -46t29 -88
q0 -75 -54.5 -119t-153.5 -44h-5q-23 -25 -50 -46z" />
    <glyph glyph-name="Scaron" unicode="&#x160;" horiz-adv-x="653" 
d="M142 46q-81 56 -99 170h70q15 -87 79.5 -125.5t151.5 -38.5q91 0 141 42t50 116q0 54 -29 85t-72 46t-116 31q-81 17 -129.5 35t-82 57.5t-33.5 107.5q0 60 32 106t88.5 70.5t127.5 24.5q105 0 173 -51.5t85 -159.5h-66q-29 149 -193 149q-79 0 -128.5 -36.5t-49.5 -97.5
q0 -47 27 -74.5t67 -41.5t109 -29q83 -18 135 -37.5t88 -63t36 -118.5q0 -102 -69 -162.5t-196 -60.5q-116 0 -197 56zM162 977h72l57 -61q28 -30 28 -50h14q0 20 28 50l57 61h72l-157 -161h-14z" />
    <glyph glyph-name="scaron" unicode="&#x161;" horiz-adv-x="543" 
d="M118.5 38.5q-62.5 48.5 -73.5 134.5h66q8 -59 52.5 -92t124.5 -33q65 0 102.5 26t37.5 73q0 37 -22.5 58.5t-55.5 32t-89 21.5q-63 13 -102 26t-66 42t-27 79q0 72 54.5 112.5t140.5 40.5q88 0 144.5 -46t69.5 -124h-65q-9 54 -48 83t-101 29q-61 0 -95.5 -23.5
t-34.5 -64.5q0 -31 20.5 -50t51 -28.5t83.5 -19.5q67 -14 108 -28t70 -46t29 -88q0 -75 -54.5 -119t-153.5 -44q-104 0 -166.5 48.5zM107 763h72l57 -61q28 -30 28 -50h14q0 20 28 50l57 61h72l-157 -161h-14z" />
    <glyph glyph-name="uni0162" unicode="&#x162;" horiz-adv-x="634" 
d="M276 -56l7 -9q15 3 31 3q17 0 33 -3q35 -6 58 -24.5t23 -50.5q0 -41 -32.5 -62.5t-86.5 -21.5q-43 0 -91 14v30q46 -19 88 -19q38 0 59.5 15t21.5 43q0 30 -24 43.5t-69 18.5q-28 2 -57 2l57 77h-12v701h-268v62h606v-62h-269v-701h-16q-29 -33 -59 -56z" />
    <glyph glyph-name="uni0163" unicode="&#x163;" horiz-adv-x="346" 
d="M181 491v-340q0 -36 4.5 -54.5t20 -28.5t48.5 -10h55v-58h-70q-16 0 -24 1q-22 -27 -60 -57l7 -9q15 3 31 3q17 0 33 -3q35 -6 58 -24.5t23 -50.5q0 -41 -32.5 -62.5t-86.5 -21.5q-43 0 -91 14v30q46 -19 88 -19q38 0 59.5 15t21.5 43q0 30 -24 43.5t-69 18.5
q-28 2 -57 2l63 85q-32 11 -47.5 41.5t-15.5 88.5v353h-89v58h89v214h65v-214h129v-58h-129z" />
    <glyph glyph-name="Tcaron" unicode="&#x164;" horiz-adv-x="634" 
d="M282 0v701h-268v62h606v-62h-269v-701h-69zM153 977h72l57 -61q28 -30 28 -50h14q0 20 28 50l57 61h72l-157 -161h-14z" />
    <glyph glyph-name="tcaron" unicode="&#x165;" horiz-adv-x="346" 
d="M145 29.5q-29 29.5 -29 108.5v353h-89v58h89v214h65v-214h129v-58h-129v-340q0 -36 4.5 -54.5t20 -28.5t48.5 -10h55v-58h-70q-65 0 -94 29.5zM329 716q23 30 23 76q0 9 -2 29h-12q-9 -18 -31 -18q-21 0 -35 13.5t-14 35.5t15 36.5t40 14.5q36 0 57 -29t21 -77
q0 -57 -31.5 -101t-98.5 -54v36q45 8 68 38z" />
    <glyph glyph-name="Umacron" unicode="&#x16a;" horiz-adv-x="689" 
d="M139.5 63q-67.5 73 -67.5 207v493h69v-493q0 -218 203 -218t203 218v493h69v-493q0 -134 -67.5 -207t-204.5 -73t-204.5 73zM198 885v34h294v-34h-294z" />
    <glyph glyph-name="umacron" unicode="&#x16b;" horiz-adv-x="558" 
d="M154 12.5q-38 22.5 -60 61.5q-17 31 -22 65.5t-5 72.5v337h65v-340q0 -71 24 -110q32 -51 100 -51q63 0 105 45q30 34 45.5 90.5t15.5 148.5v217h65v-549h-65v48q0 16 2.5 26t9.5 21l-14 8q-31 -59 -73.5 -86t-104.5 -27q-50 0 -88 22.5zM132 671v34h294v-34h-294z" />
    <glyph glyph-name="Uring" unicode="&#x16e;" horiz-adv-x="689" 
d="M139.5 63q-67.5 73 -67.5 207v493h69v-493q0 -218 203 -218t203 218v493h69v-493q0 -134 -67.5 -207t-204.5 -73t-204.5 73zM268 834q-32 32 -32 77t31.5 76.5t77.5 31.5q44 0 76.5 -31.5t32.5 -76.5t-32 -77t-77 -32t-77 32zM388.5 867.5q17.5 18.5 17.5 45.5
q0 25 -17 42.5t-44 17.5q-26 0 -44 -17.5t-18 -42.5q0 -27 18 -45.5t44 -18.5t43.5 18.5z" />
    <glyph glyph-name="uring" unicode="&#x16f;" horiz-adv-x="558" 
d="M154 12.5q-38 22.5 -60 61.5q-17 31 -22 65.5t-5 72.5v337h65v-340q0 -71 24 -110q32 -51 100 -51q63 0 105 45q30 34 45.5 90.5t15.5 148.5v217h65v-549h-65v48q0 16 2.5 26t9.5 21l-14 8q-31 -59 -73.5 -86t-104.5 -27q-50 0 -88 22.5zM202 620q-32 32 -32 77
t31.5 76.5t77.5 31.5q44 0 76.5 -31.5t32.5 -76.5t-32 -77t-77 -32t-77 32zM322.5 653.5q17.5 18.5 17.5 45.5q0 25 -17 42.5t-44 17.5q-26 0 -44 -17.5t-18 -42.5q0 -27 18 -45.5t44 -18.5t43.5 18.5z" />
    <glyph glyph-name="Uhungarumlaut" unicode="&#x170;" horiz-adv-x="689" 
d="M139.5 63q-67.5 73 -67.5 207v493h69v-493q0 -218 203 -218t203 218v493h69v-493q0 -134 -67.5 -207t-204.5 -73t-204.5 73zM228 823l118 154h75l-136 -154h-57zM404 823l119 154h78l-139 -154h-58z" />
    <glyph glyph-name="uhungarumlaut" unicode="&#x171;" horiz-adv-x="558" 
d="M154 12.5q-38 22.5 -60 61.5q-17 31 -22 65.5t-5 72.5v337h65v-340q0 -71 24 -110q32 -51 100 -51q63 0 105 45q30 34 45.5 90.5t15.5 148.5v217h65v-549h-65v48q0 16 2.5 26t9.5 21l-14 8q-31 -59 -73.5 -86t-104.5 -27q-50 0 -88 22.5zM162 609l118 154h75l-136 -154
h-57zM338 609l119 154h78l-139 -154h-58z" />
    <glyph glyph-name="Uogonek" unicode="&#x172;" horiz-adv-x="689" 
d="M616 763v-493q0 -111 -46.5 -180.5t-141.5 -90.5q-51 -48 -69.5 -73t-18.5 -53q0 -26 15 -40.5t43 -14.5q16 0 32 4v-41q-20 -5 -43 -5q-44 0 -71 22.5t-27 64.5q0 41 25 70.5t79 55.5v4q-22 -3 -49 -3q-137 0 -204.5 73t-67.5 207v493h69v-493q0 -218 203 -218t203 218
v493h69z" />
    <glyph glyph-name="uogonek" unicode="&#x173;" horiz-adv-x="558" 
d="M416.5 -73.5q-19.5 -25.5 -19.5 -53.5q0 -26 15 -40.5t43 -14.5q16 0 32 4v-41q-20 -5 -43 -5q-44 0 -71 22.5t-27 64.5q0 41 25 70.5t79 55.5v11h-28v48q0 16 2.5 26t9.5 21l-14 8q-31 -59 -73.5 -86t-104.5 -27q-50 0 -88 22.5t-60 61.5q-17 31 -22 65.5t-5 72.5v337
h65v-340q0 -71 24 -110q32 -51 100 -51q63 0 105 45q30 34 45.5 90.5t15.5 148.5v217h65v-549q-51 -48 -70.5 -73.5z" />
    <glyph glyph-name="Wcircumflex" unicode="&#x174;" horiz-adv-x="1081" 
d="M22 763h73l179 -587q16 -51 16 -78h16q0 27 16 78l186 587h65l186 -587q16 -51 16 -78h16q0 27 16 78l180 587h72l-231 -763h-80l-175 549q-16 51 -24 103h-16q-5 -32 -10.5 -53t-14.5 -50l-175 -549h-81zM534 994h14l157 -161h-72l-57 61q-28 30 -28 50h-14
q0 -20 -28 -50l-57 -61h-72z" />
    <glyph glyph-name="wcircumflex" unicode="&#x175;" horiz-adv-x="805" 
d="M27 549h68l107 -391q6 -24 11 -60h13q4 32 13 60l133 391h60l133 -391q9 -28 13 -60h13q5 36 11 60l108 391h68l-159 -549h-61l-138 411q-8 24 -11 52h-13q-3 -28 -11 -52l-140 -411h-60zM395 780h14l157 -161h-72l-57 61q-28 30 -28 50h-14q0 -20 -28 -50l-57 -61h-72z
" />
    <glyph glyph-name="Ycircumflex" unicode="&#x176;" horiz-adv-x="662" 
d="M295 292l-287 471h80l212 -352q15 -24 19 -36.5t4 -34.5h16q0 21 4 33t19 38l212 352h80l-287 -471v-292h-72v292zM324 994h14l157 -161h-72l-57 61q-28 30 -28 50h-14q0 -20 -28 -50l-57 -61h-72z" />
    <glyph glyph-name="ycircumflex" unicode="&#x177;" horiz-adv-x="542" 
d="M67 -155h60q35 0 51.5 11t29.5 43l40 106l-228 544h72l164 -400q10 -23 13.5 -38t3.5 -30h16q0 16 2.5 30.5t11.5 37.5l144 400h72l-248 -672q-21 -55 -50.5 -73t-63.5 -18h-90v59zM264 780h14l157 -161h-72l-57 61q-28 30 -28 50h-14q0 -20 -28 -50l-57 -61h-72z" />
    <glyph glyph-name="Ydieresis" unicode="&#x178;" horiz-adv-x="662" 
d="M295 292l-287 471h80l212 -352q15 -24 19 -36.5t4 -34.5h16q0 21 4 33t19 38l212 352h80l-287 -471v-292h-72v292zM200.5 826.5q-14.5 14.5 -14.5 34.5t14.5 34t34.5 14t34.5 -14t14.5 -34t-14.5 -34.5t-34.5 -14.5t-34.5 14.5zM392.5 826.5q-14.5 14.5 -14.5 34.5
t14.5 34t34.5 14t34.5 -14t14.5 -34t-14.5 -34.5t-34.5 -14.5t-34.5 14.5z" />
    <glyph glyph-name="Zacute" unicode="&#x179;" horiz-adv-x="638" 
d="M29 54l457 601q4 5 13.5 17t22.5 27l-6 12q-17 -7 -29.5 -8.5t-28.5 -1.5h-405v62h553v-55l-449 -590q-16 -22 -43 -54l6 -12q20 7 35 8.5t35 1.5h414v-62h-575v54zM286 823l117 154h76l-136 -154h-57z" />
    <glyph glyph-name="zacute" unicode="&#x17a;" horiz-adv-x="521" 
d="M34 59l312 359q3 4 22.5 26.5t53.5 50.5l-6 12q-20 -10 -34.5 -13t-35.5 -3h-293v58h432v-64l-306 -354q-3 -4 -22.5 -26.5t-53.5 -50.5l6 -12q27 16 70 16h302v-58h-447v59zM228 609l117 154h76l-136 -154h-57z" />
    <glyph glyph-name="Zdotaccent" unicode="&#x17b;" horiz-adv-x="638" 
d="M29 54l457 601q4 5 13.5 17t22.5 27l-6 12q-17 -7 -29.5 -8.5t-28.5 -1.5h-405v62h553v-55l-449 -590q-16 -22 -43 -54l6 -12q20 7 35 8.5t35 1.5h414v-62h-575v54zM285.5 826.5q-14.5 14.5 -14.5 34.5t14.5 34t34.5 14t34.5 -14t14.5 -34t-14.5 -34.5t-34.5 -14.5
t-34.5 14.5z" />
    <glyph glyph-name="zdotaccent" unicode="&#x17c;" horiz-adv-x="521" 
d="M34 59l312 359q3 4 22.5 26.5t53.5 50.5l-6 12q-20 -10 -34.5 -13t-35.5 -3h-293v58h432v-64l-306 -354q-3 -4 -22.5 -26.5t-53.5 -50.5l6 -12q27 16 70 16h302v-58h-447v59zM227.5 690.5q-14.5 14.5 -14.5 34.5t14.5 34t34.5 14t34.5 -14t14.5 -34t-14.5 -34.5
t-34.5 -14.5t-34.5 14.5z" />
    <glyph glyph-name="Zcaron" unicode="&#x17d;" horiz-adv-x="638" 
d="M29 54l457 601q4 5 13.5 17t22.5 27l-6 12q-17 -7 -29.5 -8.5t-28.5 -1.5h-405v62h553v-55l-449 -590q-16 -22 -43 -54l6 -12q20 7 35 8.5t35 1.5h414v-62h-575v54zM156 977h72l57 -61q28 -30 28 -50h14q0 20 28 50l57 61h72l-157 -161h-14z" />
    <glyph glyph-name="zcaron" unicode="&#x17e;" horiz-adv-x="521" 
d="M34 59l312 359q3 4 22.5 26.5t53.5 50.5l-6 12q-20 -10 -34.5 -13t-35.5 -3h-293v58h432v-64l-306 -354q-3 -4 -22.5 -26.5t-53.5 -50.5l6 -12q27 16 70 16h302v-58h-447v59zM98 763h72l57 -61q28 -30 28 -50h14q0 20 28 50l57 61h72l-157 -161h-14z" />
    <glyph glyph-name="florin" unicode="&#x192;" horiz-adv-x="468" 
d="M64 -156h52q43 0 64 25.5t21 82.5v539h-137v58h137v64q0 150 138 150h65v-58h-52q-44 0 -65 -22.5t-21 -78.5v-55h138v-58h-138v-555q0 -150 -136 -150h-66v58z" />
    <glyph glyph-name="Oslashacute" unicode="&#x1fe;" horiz-adv-x="794" 
d="M679 627q32 -50 48.5 -112.5t16.5 -132.5q0 -107 -39 -196.5t-117 -142.5t-191 -53q-80 0 -143.5 27.5t-107.5 77.5l-59 -59l-35 35l64 64q-66 103 -66 247q0 107 39 196t117 142t191 53q157 0 252 -105l60 60l35 -36zM165 184l436 436q-35 44 -87 67.5t-117 23.5
q-89 0 -151.5 -42.5t-94.5 -117t-32 -169.5q0 -118 46 -198zM630 578l-437 -436q76 -90 204 -90q89 0 151.5 43t94.5 117.5t32 169.5q0 115 -45 196zM364 823l117 154h76l-136 -154h-57z" />
    <glyph glyph-name="oslashacute" unicode="&#x1ff;" horiz-adv-x="625" 
d="M576 277q0 -81 -34 -146.5t-94.5 -103t-136.5 -37.5q-52 0 -98 18t-80 52l-49 -48l-35 35l51 51q-52 76 -52 179q0 80 34 144t94 101t135 37q52 0 98 -18t82 -52l49 49l35 -36l-52 -51q53 -75 53 -174zM147 145l300 300q-27 27 -61.5 41.5t-74.5 14.5q-56 0 -101.5 -29
t-71 -80.5t-25.5 -114.5q0 -76 34 -132zM413 78q46 30 72 82t26 117q0 72 -34 128l-300 -300q55 -57 134 -57q56 0 102 30zM278 609l117 154h76l-136 -154h-57z" />
    <glyph glyph-name="uni0218" unicode="&#x218;" horiz-adv-x="653" 
d="M142 46q-81 56 -99 170h70q15 -87 79.5 -125.5t151.5 -38.5q91 0 141 42t50 116q0 54 -29 85t-72 46t-116 31q-81 17 -129.5 35t-82 57.5t-33.5 107.5q0 60 32 106t88.5 70.5t127.5 24.5q105 0 173 -51.5t85 -159.5h-66q-29 149 -193 149q-79 0 -128.5 -36.5t-49.5 -97.5
q0 -47 27 -74.5t67 -41.5t109 -29q83 -18 135 -37.5t88 -63t36 -118.5q0 -102 -69 -162.5t-196 -60.5q-116 0 -197 56zM330.5 -180q19.5 12 19.5 34q0 11 -4 24h-9q-8 -15 -25 -15t-28 11t-11 29t12 29t32 11q29 0 45.5 -23t16.5 -61q0 -33 -24.5 -53t-78.5 -20v22
q35 0 54.5 12z" />
    <glyph glyph-name="uni0219" unicode="&#x219;" horiz-adv-x="543" 
d="M118.5 38.5q-62.5 48.5 -73.5 134.5h66q8 -59 52.5 -92t124.5 -33q65 0 102.5 26t37.5 73q0 37 -22.5 58.5t-55.5 32t-89 21.5q-63 13 -102 26t-66 42t-27 79q0 72 54.5 112.5t140.5 40.5q88 0 144.5 -46t69.5 -124h-65q-9 54 -48 83t-101 29q-61 0 -95.5 -23.5
t-34.5 -64.5q0 -31 20.5 -50t51 -28.5t83.5 -19.5q67 -14 108 -28t70 -46t29 -88q0 -75 -54.5 -119t-153.5 -44q-104 0 -166.5 48.5zM275.5 -180q19.5 12 19.5 34q0 11 -4 24h-9q-8 -15 -25 -15t-28 11t-11 29t12 29t32 11q29 0 45.5 -23t16.5 -61q0 -33 -24.5 -53
t-78.5 -20v22q35 0 54.5 12z" />
    <glyph glyph-name="uni021A" unicode="&#x21a;" horiz-adv-x="634" 
d="M282 0v701h-268v62h606v-62h-269v-701h-69zM321.5 -180q19.5 12 19.5 34q0 11 -4 24h-9q-8 -15 -25 -15t-28 11t-11 29t12 29t32 11q29 0 45.5 -23t16.5 -61q0 -33 -24.5 -53t-78.5 -20v22q35 0 54.5 12z" />
    <glyph glyph-name="uni021B" unicode="&#x21b;" horiz-adv-x="346" 
d="M145 29.5q-29 29.5 -29 108.5v353h-89v58h89v214h65v-214h129v-58h-129v-340q0 -36 4.5 -54.5t20 -28.5t48.5 -10h55v-58h-70q-65 0 -94 29.5zM200.5 -180q19.5 12 19.5 34q0 11 -4 24h-9q-8 -15 -25 -15t-28 11t-11 29t12 29t32 11q29 0 45.5 -23t16.5 -61
q0 -33 -24.5 -53t-78.5 -20v22q35 0 54.5 12z" />
    <glyph glyph-name="uni0237" unicode="&#x237;" horiz-adv-x="209" 
d="M-68 -155h52q44 0 66 24t22 80v600h65v-610q0 -153 -138 -153h-67v59z" />
    <glyph glyph-name="circumflex" unicode="&#x2c6;" horiz-adv-x="360" 
d="M173 780h14l157 -161h-72l-57 61q-28 30 -28 50h-14q0 -20 -28 -50l-57 -61h-72z" />
    <glyph glyph-name="caron" unicode="&#x2c7;" horiz-adv-x="360" 
d="M16 763h72l57 -61q28 -30 28 -50h14q0 20 28 50l57 61h72l-157 -161h-14z" />
    <glyph glyph-name="breve" unicode="&#x2d8;" horiz-adv-x="361" 
d="M62.5 653.5q-41.5 38.5 -46.5 109.5h48q4 -48 34.5 -75t82.5 -27t81.5 27t33.5 75h49q-4 -71 -46 -109.5t-118 -38.5q-77 0 -118.5 38.5z" />
    <glyph glyph-name="dotaccent" unicode="&#x2d9;" horiz-adv-x="130" 
d="M30.5 690.5q-14.5 14.5 -14.5 34.5t14.5 34t34.5 14t34.5 -14t14.5 -34t-14.5 -34.5t-34.5 -14.5t-34.5 14.5z" />
    <glyph glyph-name="ring" unicode="&#x2da;" horiz-adv-x="250" 
d="M48 620q-32 32 -32 77t31.5 76.5t77.5 31.5q44 0 76.5 -31.5t32.5 -76.5t-32 -77t-77 -32t-77 32zM168.5 653.5q17.5 18.5 17.5 45.5q0 25 -17 42.5t-44 17.5q-26 0 -44 -17.5t-18 -42.5q0 -27 18 -45.5t44 -18.5t43.5 18.5z" />
    <glyph glyph-name="ogonek" unicode="&#x2db;" horiz-adv-x="173" 
d="M43 -201.5q-27 22.5 -27 64.5q0 41 25 70.5t79 55.5v11h37q-51 -48 -70.5 -73.5t-19.5 -53.5q0 -26 15 -40.5t43 -14.5q16 0 32 4v-41q-20 -5 -43 -5q-44 0 -71 22.5z" />
    <glyph glyph-name="tilde" unicode="&#x2dc;" horiz-adv-x="383" 
d="M212.5 636q-19.5 14 -40.5 40q-16 20 -27 29t-27 9q-46 0 -52 -84h-50q3 66 31 102t74 36q29 0 48 -13.5t39 -38.5q16 -20 28.5 -30t29.5 -10q20 0 33 23t15 64h53q-5 -71 -29.5 -106t-72.5 -35q-33 0 -52.5 14z" />
    <glyph glyph-name="hungarumlaut" unicode="&#x2dd;" horiz-adv-x="405" 
d="M16 609l118 154h75l-136 -154h-57zM192 609l119 154h78l-139 -154h-58z" />
    <glyph glyph-name="gravecomb" unicode="&#x300;" 
d="M-16 609h-57l-136 154h76z" />
    <glyph glyph-name="acutecomb" unicode="&#x301;" 
d="M-209 609l117 154h76l-136 -154h-57z" />
    <glyph glyph-name="uni0302" unicode="&#x302;" 
d="M-187 780h14l157 -161h-72l-57 61q-28 30 -28 50h-14q0 -20 -28 -50l-57 -61h-72z" />
    <glyph glyph-name="tildecomb" unicode="&#x303;" 
d="M-170.5 636q-19.5 14 -40.5 40q-16 20 -27 29t-27 9q-46 0 -52 -84h-50q3 66 31 102t74 36q29 0 48 -13.5t39 -38.5q16 -20 28.5 -30t29.5 -10q20 0 33 23t15 64h53q-5 -71 -29.5 -106t-72.5 -35q-33 0 -52.5 14z" />
    <glyph glyph-name="uni0304" unicode="&#x304;" 
d="M-310 671v34h294v-34h-294z" />
    <glyph glyph-name="uni0306" unicode="&#x306;" 
d="M-298.5 653.5q-41.5 38.5 -46.5 109.5h48q4 -48 34.5 -75t82.5 -27t81.5 27t33.5 75h49q-4 -71 -46 -109.5t-118 -38.5q-77 0 -118.5 38.5z" />
    <glyph glyph-name="uni0307" unicode="&#x307;" 
d="M-99.5 690.5q-14.5 14.5 -14.5 34.5t14.5 34t34.5 14t34.5 -14t14.5 -34t-14.5 -34.5t-34.5 -14.5t-34.5 14.5z" />
    <glyph glyph-name="uni0308" unicode="&#x308;" 
d="M-291.5 690.5q-14.5 14.5 -14.5 34.5t14.5 34t34.5 14t34.5 -14t14.5 -34t-14.5 -34.5t-34.5 -14.5t-34.5 14.5zM-99.5 690.5q-14.5 14.5 -14.5 34.5t14.5 34t34.5 14t34.5 -14t14.5 -34t-14.5 -34.5t-34.5 -14.5t-34.5 14.5z" />
    <glyph glyph-name="uni030A" unicode="&#x30a;" 
d="M-202 620q-32 32 -32 77t31.5 76.5t77.5 31.5q44 0 76.5 -31.5t32.5 -76.5t-32 -77t-77 -32t-77 32zM-81.5 653.5q17.5 18.5 17.5 45.5q0 25 -17 42.5t-44 17.5q-26 0 -44 -17.5t-18 -42.5q0 -27 18 -45.5t44 -18.5t43.5 18.5z" />
    <glyph glyph-name="uni030B" unicode="&#x30b;" 
d="M-389 609l118 154h75l-136 -154h-57zM-213 609l119 154h78l-139 -154h-58z" />
    <glyph glyph-name="uni030C" unicode="&#x30c;" 
d="M-344 763h72l57 -61q28 -30 28 -50h14q0 20 28 50l57 61h72l-157 -161h-14z" />
    <glyph glyph-name="uni030F" unicode="&#x30f;" 
d="M-236 608l-117 143q-2 2 -2 6q0 6 8 6h37q8 0 12 -6l103 -143q2 -2 2 -6q0 -2 -2 -4t-6 -2h-23q-7 0 -12 6zM-60 608l-112 143q-2 2 -2 6q0 6 8 6h32q8 0 12 -6l104 -143q2 -2 2 -6q0 -2 -2 -4t-6 -2h-23q-9 0 -13 6z" />
    <glyph glyph-name="uni0312" unicode="&#x312;" 
d="M-37 604q-17 21 -17 55q0 40 25.5 71.5t79.5 39.5v-26q-36 -6 -55 -27.5t-19 -55.5q0 -5 2 -19h10q7 12 25 12q17 0 28 -9.5t11 -25.5q0 -15 -12 -25.5t-32 -10.5q-29 0 -46 21z" />
    <glyph glyph-name="uni031B" unicode="&#x31b;" 
d="M-82 614q24 31 24 90v49q0 10 10 10h22q10 0 10 -10v-46q0 -78 -35.5 -119.5t-108.5 -41.5v37q54 0 78 31z" />
    <glyph glyph-name="uni0326" unicode="&#x326;" 
d="M-64.5 -180q19.5 12 19.5 34q0 11 -4 24h-9q-8 -15 -25 -15t-28 11t-11 29t12 29t32 11q29 0 45.5 -23t16.5 -61q0 -33 -24.5 -53t-78.5 -20v22q35 0 54.5 12z" />
    <glyph glyph-name="uni0327" unicode="&#x327;" 
d="M-226 -210v30q46 -19 88 -19q38 0 59.5 15t21.5 43q0 30 -24 43.5t-69 18.5q-28 2 -57 2l66 89h42q-30 -38 -69 -68l7 -9q13 3 31 3q16 0 33 -3q35 -6 58 -24.5t23 -50.5q0 -41 -32.5 -62.5t-86.5 -21.5q-43 0 -91 14z" />
    <glyph glyph-name="uni0328" unicode="&#x328;" 
d="M-130 -201.5q-27 22.5 -27 64.5q0 41 25 70.5t79 55.5v11h37q-51 -48 -70.5 -73.5t-19.5 -53.5q0 -26 15 -40.5t43 -14.5q16 0 32 4v-41q-20 -5 -43 -5q-44 0 -71 22.5z" />
    <glyph glyph-name="uni0337" unicode="&#x337;" 
d="M-228 277v46l212 110v-46z" />
    <glyph glyph-name="uni0338" unicode="&#x338;" 
d="M-507 28l-35 35l491 491l35 -36z" />
    <glyph glyph-name="uni0394" unicode="&#x394;" horiz-adv-x="688" 
d="M16 0l288 763h80l288 -763h-656zM152.5 62q22.5 3 49.5 3h284q27 0 49.5 -3t50.5 -11l8 12q-21 26 -31.5 47t-21.5 51l-165 446l-10.5 28t-10.5 35t-3 30h-16q0 -19 -4 -34.5t-10.5 -33t-9.5 -25.5l-165 -446q-11 -30 -21.5 -51t-31.5 -47l8 -12q28 8 50.5 11z" />
    <glyph glyph-name="pi" unicode="&#x3c0;" horiz-adv-x="556" 
d="M101 491h-89v58h514v-58h-109v-347q0 -51 16 -68.5t54 -17.5h39v-58h-50q-60 0 -92 28.5t-32 97.5v365h-185v-491h-66v491z" />
    <glyph glyph-name="Wgrave" unicode="&#x1e80;" horiz-adv-x="1081" 
d="M22 763h73l179 -587q16 -51 16 -78h16q0 27 16 78l186 587h65l186 -587q16 -51 16 -78h16q0 27 16 78l180 587h72l-231 -763h-80l-175 549q-16 51 -24 103h-16q-5 -32 -10.5 -53t-14.5 -50l-175 -549h-81zM575 823h-57l-136 154h76z" />
    <glyph glyph-name="wgrave" unicode="&#x1e81;" horiz-adv-x="805" 
d="M27 549h68l107 -391q6 -24 11 -60h13q4 32 13 60l133 391h60l133 -391q9 -28 13 -60h13q5 36 11 60l108 391h68l-159 -549h-61l-138 411q-8 24 -11 52h-13q-3 -28 -11 -52l-140 -411h-60zM436 609h-57l-136 154h76z" />
    <glyph glyph-name="Wacute" unicode="&#x1e82;" horiz-adv-x="1081" 
d="M22 763h73l179 -587q16 -51 16 -78h16q0 27 16 78l186 587h65l186 -587q16 -51 16 -78h16q0 27 16 78l180 587h72l-231 -763h-80l-175 549q-16 51 -24 103h-16q-5 -32 -10.5 -53t-14.5 -50l-175 -549h-81zM507 823l117 154h76l-136 -154h-57z" />
    <glyph glyph-name="wacute" unicode="&#x1e83;" horiz-adv-x="805" 
d="M27 549h68l107 -391q6 -24 11 -60h13q4 32 13 60l133 391h60l133 -391q9 -28 13 -60h13q5 36 11 60l108 391h68l-159 -549h-61l-138 411q-8 24 -11 52h-13q-3 -28 -11 -52l-140 -411h-60zM368 609l117 154h76l-136 -154h-57z" />
    <glyph glyph-name="Wdieresis" unicode="&#x1e84;" horiz-adv-x="1081" 
d="M22 763h73l179 -587q16 -51 16 -78h16q0 27 16 78l186 587h65l186 -587q16 -51 16 -78h16q0 27 16 78l180 587h72l-231 -763h-80l-175 549q-16 51 -24 103h-16q-5 -32 -10.5 -53t-14.5 -50l-175 -549h-81zM410.5 826.5q-14.5 14.5 -14.5 34.5t14.5 34t34.5 14t34.5 -14
t14.5 -34t-14.5 -34.5t-34.5 -14.5t-34.5 14.5zM602.5 826.5q-14.5 14.5 -14.5 34.5t14.5 34t34.5 14t34.5 -14t14.5 -34t-14.5 -34.5t-34.5 -14.5t-34.5 14.5z" />
    <glyph glyph-name="wdieresis" unicode="&#x1e85;" horiz-adv-x="805" 
d="M27 549h68l107 -391q6 -24 11 -60h13q4 32 13 60l133 391h60l133 -391q9 -28 13 -60h13q5 36 11 60l108 391h68l-159 -549h-61l-138 411q-8 24 -11 52h-13q-3 -28 -11 -52l-140 -411h-60zM271.5 690.5q-14.5 14.5 -14.5 34.5t14.5 34t34.5 14t34.5 -14t14.5 -34
t-14.5 -34.5t-34.5 -14.5t-34.5 14.5zM463.5 690.5q-14.5 14.5 -14.5 34.5t14.5 34t34.5 14t34.5 -14t14.5 -34t-14.5 -34.5t-34.5 -14.5t-34.5 14.5z" />
    <glyph glyph-name="uni1E9E" unicode="&#x1e9e;" horiz-adv-x="677" 
d="M93.5 600q14.5 59 46.5 97q64 76 194 76q66 0 119 -19.5t105 -65.5v-53l-153 -151q-24 -24 -60 -48l6 -14q36 9 68 9q58 0 105.5 -26t74.5 -74t27 -110q0 -120 -74.5 -170.5t-180.5 -50.5h-131v62h124q78 0 135.5 32t57.5 121q0 91 -50 123.5t-116 32.5h-96v86l142 140
q46 46 73 46v16q-11 0 -19 4t-24 13q-27 15 -31 17q-40 18 -102 18q-95 0 -141 -59q-23 -29 -34 -76.5t-11 -123.5v-452h-69v452q0 89 14.5 148z" />
    <glyph glyph-name="Ygrave" unicode="&#x1ef2;" horiz-adv-x="662" 
d="M295 292l-287 471h80l212 -352q15 -24 19 -36.5t4 -34.5h16q0 21 4 33t19 38l212 352h80l-287 -471v-292h-72v292zM365 823h-57l-136 154h76z" />
    <glyph glyph-name="ygrave" unicode="&#x1ef3;" horiz-adv-x="542" 
d="M67 -155h60q35 0 51.5 11t29.5 43l40 106l-228 544h72l164 -400q10 -23 13.5 -38t3.5 -30h16q0 16 2.5 30.5t11.5 37.5l144 400h72l-248 -672q-21 -55 -50.5 -73t-63.5 -18h-90v59zM305 609h-57l-136 154h76z" />
    <glyph glyph-name="endash" unicode="&#x2013;" horiz-adv-x="545" 
d="M22 314v49h501v-49h-501z" />
    <glyph glyph-name="emdash" unicode="&#x2014;" horiz-adv-x="1106" 
d="M0 314v49h1106v-49h-1106z" />
    <glyph glyph-name="uni2015" unicode="&#x2015;" horiz-adv-x="792" 
d="M72 319v42h648v-42h-648z" />
    <glyph glyph-name="quoteleft" unicode="&#x2018;" horiz-adv-x="275" 
d="M90 538q-21 29 -21 77q0 57 31.5 101t98.5 54v-36q-45 -8 -68 -38t-23 -76q0 -9 2 -29h12q9 18 31 18q21 0 35 -13.5t14 -35.5t-15 -36.5t-40 -14.5q-36 0 -57 29z" />
    <glyph glyph-name="quoteright" unicode="&#x2019;" horiz-adv-x="275" 
d="M144 586q23 30 23 76q0 9 -2 29h-12q-9 -18 -31 -18q-21 0 -35 13.5t-14 35.5t15 36.5t40 14.5q36 0 57 -29t21 -77q0 -57 -31.5 -101t-98.5 -54v36q45 8 68 38z" />
    <glyph glyph-name="quotesinglbase" unicode="&#x201a;" horiz-adv-x="313" 
d="M161 -97q23 30 23 76q0 9 -2 29h-12q-9 -18 -31 -18q-21 0 -35 13.5t-14 35.5t15 36.5t40 14.5q36 0 57 -29t21 -77q0 -57 -31.5 -101t-98.5 -54v36q45 8 68 38z" />
    <glyph glyph-name="quotedblleft" unicode="&#x201c;" horiz-adv-x="472" 
d="M131 697q-23 -30 -23 -76q0 -9 2 -29h12q9 18 31 18q21 0 35 -13.5t14 -35.5t-15 -36.5t-40 -14.5q-36 0 -57 29t-21 77q0 57 31.5 101t98.5 54v-36q-45 -8 -68 -38zM328 697q-23 -30 -23 -76q0 -9 2 -29h12q9 18 31 18q21 0 35 -13.5t14 -35.5t-15 -36.5t-40 -14.5
q-36 0 -57 29t-21 77q0 57 31.5 101t98.5 54v-36q-45 -8 -68 -38z" />
    <glyph glyph-name="quotedblright" unicode="&#x201d;" horiz-adv-x="472" 
d="M144 586q23 30 23 76q0 9 -2 29h-12q-9 -18 -31 -18q-21 0 -35 13.5t-14 35.5t15 36.5t40 14.5q36 0 57 -29t21 -77q0 -57 -31.5 -101t-98.5 -54v36q45 8 68 38zM341 586q23 30 23 76q0 9 -2 29h-12q-9 -18 -31 -18q-21 0 -35 13.5t-14 35.5t15 36.5t40 14.5q36 0 57 -29
t21 -77q0 -57 -31.5 -101t-98.5 -54v36q45 8 68 38z" />
    <glyph glyph-name="quotedblbase" unicode="&#x201e;" horiz-adv-x="510" 
d="M161 -79q23 30 23 76q0 9 -2 29h-12q-9 -18 -31 -18q-21 0 -35 13.5t-14 35.5t15 36.5t40 14.5q36 0 57 -29t21 -77q0 -57 -31.5 -101t-98.5 -54v36q45 8 68 38zM358 -79q23 30 23 76q0 9 -2 29h-12q-9 -18 -31 -18q-21 0 -35 13.5t-14 35.5t15 36.5t40 14.5q36 0 57 -29
t21 -77q0 -57 -31.5 -101t-98.5 -54v36q45 8 68 38z" />
    <glyph glyph-name="dagger" unicode="&#x2020;" horiz-adv-x="649" 
d="M296 -214v672h-248v58h248v247h58v-247h247v-58h-247v-672h-58z" />
    <glyph glyph-name="bullet" unicode="&#x2022;" horiz-adv-x="418" 
d="M144.5 149q-29.5 17 -47 46.5t-17.5 64.5t17.5 64.5t47 46.5t63.5 17q35 0 64.5 -17t47 -46.5t17.5 -64.5t-17.5 -64.5t-47 -46.5t-64.5 -17q-34 0 -63.5 17z" />
    <glyph glyph-name="uni2023" unicode="&#x2023;" horiz-adv-x="421" 
d="M112 119v299l263 -149z" />
    <glyph glyph-name="ellipsis" unicode="&#x2026;" horiz-adv-x="726" 
d="M105.5 4.5q-15.5 14.5 -15.5 35.5q0 20 15 35t37 15q19 0 33.5 -15t14.5 -35q0 -21 -14.5 -35.5t-33.5 -14.5q-21 0 -36.5 14.5zM328 5q-15 15 -15 35t15 35t36 15q20 0 35 -15t15 -35q0 -21 -15 -35.5t-35 -14.5q-21 0 -36 15zM551.5 4.5q-14.5 14.5 -14.5 35.5
q0 20 14.5 35t35.5 15q20 0 34.5 -15t14.5 -35q0 -21 -14.5 -35.5t-34.5 -14.5q-21 0 -35.5 14.5z" />
    <glyph glyph-name="perthousand" unicode="&#x2030;" horiz-adv-x="1122" 
d="M119 452.5q-33 24.5 -50 64t-17 84.5q0 44 16.5 83.5t49 64t77.5 24.5q41 0 74 -22.5t51.5 -62t18.5 -87.5q0 -49 -18.5 -88.5t-50.5 -62t-72 -22.5q-46 0 -79 24.5zM147 0l432 763h62l-431 -763h-63zM262 514.5q25 33.5 25 86.5q0 50 -25 85t-67 35q-44 0 -67.5 -36
t-23.5 -84q0 -50 24 -85t70 -35q39 0 64 33.5zM512 14.5q-33 24.5 -50 64t-17 83.5t16.5 83.5t49 64t77.5 24.5q41 0 73.5 -22.5t51.5 -62t19 -88.5t-18.5 -88t-50.5 -61t-72 -22q-46 0 -79 24.5zM850 14.5q-33 24.5 -50 64t-17 83.5t16.5 83.5t49 64t77.5 24.5
q41 0 73.5 -22.5t51.5 -62t19 -88.5t-18.5 -88t-50.5 -61t-72 -22q-46 0 -79 24.5zM654.5 75.5q25.5 33.5 25.5 85.5q0 51 -24.5 86t-67.5 35q-44 0 -67 -35t-23 -85t23.5 -85t69.5 -35q38 0 63.5 33.5zM992.5 75.5q25.5 33.5 25.5 85.5q0 51 -24.5 86t-67.5 35
q-44 0 -67 -35t-23 -85t23.5 -85t69.5 -35q38 0 63.5 33.5z" />
    <glyph glyph-name="guilsinglleft" unicode="&#x2039;" horiz-adv-x="307" 
d="M29 276l212 184v-65l-88 -76q-14 -12 -28 -20t-43 -16v-14q29 -8 43 -15.5t28 -19.5l88 -77v-65z" />
    <glyph glyph-name="guilsinglright" unicode="&#x203a;" horiz-adv-x="307" 
d="M66 157l88 77q14 12 28 19.5t43 15.5v14q-29 8 -42.5 16t-28.5 20l-88 76v65l212 -184l-212 -184v65z" />
    <glyph glyph-name="fraction" unicode="&#x2044;" horiz-adv-x="148" 
d="M-155 0l419 763h39l-419 -763h-39z" />
    <glyph glyph-name="Euro" unicode="&#x20ac;" horiz-adv-x="605" 
d="M248 68q-86 78 -113 203h-82v44h85q-4 29 -4 67q0 44 5 71h-86v46h84q29 122 115 198t220 76q39 0 68 -5v-65q-34 8 -68 8q-82 0 -142 -36.5t-98 -102.5q-3 -4 -14 -24.5t-35 -47.5l9 -11q45 10 74 10h243v-46h-308q-5 -29 -5 -71q0 -38 4 -67h309v-44h-243q-31 0 -66 10
l-9 -11q17 -19 24.5 -32.5t14.5 -30.5q33 -73 94.5 -114t147.5 -41q33 0 68 7v-63q-40 -6 -68 -6q-138 0 -224 78z" />
    <glyph glyph-name="uni2116" unicode="&#x2116;" horiz-adv-x="1228" 
d="M845 330q-50 31 -78 85.5t-28 122.5q0 66 28.5 120t78 84.5t112.5 30.5t113.5 -30.5t79 -84.5t28.5 -120q0 -68 -28.5 -122.5t-78.5 -85.5t-114 -31q-63 0 -113 31zM79 763h106l323 -609q25 -47 39 -93l16 3q-7 41 -7 89v610h68v-763h-106l-323 609q-13 24 -20.5 42
t-15.5 46l-16 -3q5 -40 5 -85v-609h-69v763zM1043 372q38 25 60 68.5t22 97.5q0 52 -21.5 95t-60 67.5t-85.5 24.5t-84.5 -24.5t-59 -67t-21.5 -95.5q0 -55 21.5 -98.5t59.5 -68t84 -24.5q47 0 85 25zM773 127v48h374v-48h-374z" />
    <glyph glyph-name="trademark" unicode="&#x2122;" horiz-adv-x="617" 
d="M106 458v269h-101v36h244v-36h-102v-269h-41zM287 763h71l67 -218q5 -14 6.5 -23.5t1.5 -26.5h7q0 15 1.5 25t6.5 25l68 218h71v-305h-40v232l1 41l-6 1q-3 -20 -6.5 -29t-4.5 -13l-74 -232h-40l-75 232q-6 17 -10 42l-6 -1l1 -41v-232h-40v305z" />
    <glyph glyph-name="minus" unicode="&#x2212;" horiz-adv-x="616" 
d="M113 311v57h391v-57h-391z" />
    <glyph glyph-name="lozenge" unicode="&#x25ca;" horiz-adv-x="614" 
d="M255 0l-202 382l202 381h105l202 -381l-202 -382h-105zM308 23l184 359l-184 361l-184 -361z" />
    <glyph glyph-name="uniF8FF" unicode="&#xf8ff;" horiz-adv-x="921" 
d="M79 10v743q0 10 9 10h744q10 0 10 -10v-743q0 -10 -10 -10h-744q-9 0 -9 10zM255 94q11 11 17 22.5t14 31.5q13 36 33 69t67 82l25 26q4 4 8 4t9 -3q7 -4 17 -6q10 -3 10 -13v-36q0 -43 -5.5 -67t-15.5 -47q-10 -20 -10 -37q0 -14 11 -25t25 -11q15 0 26 11t11 25
q0 17 -10 37q-10 23 -15.5 47t-5.5 67v36q0 10 10 13q13 4 15 6q5 3 8 3q5 0 9 -4l26 -26q48 -48 68 -81.5t33 -69.5q6 -19 12 -30.5t18 -23.5q17 -15 40 -15q26 0 41 15q17 17 17 42t-16 40q-12 12 -23.5 18t-30.5 12q-37 13 -70 32.5t-81 67.5l-26 26q-4 4 -4 9q0 3 3 7
q6 12 7 18q3 11 12 11h36q44 0 68.5 -6t46.5 -16q2 -1 13 -5.5t24 -4.5q14 0 25 11t11 26q0 14 -11 25.5t-25 11.5q-13 0 -24 -4.5t-13 -5.5q-22 -10 -46.5 -16t-68.5 -6h-36q-9 0 -12 11q-4 10 -7 15t-3 8q0 4 4 8l26 26q48 48 82 68.5t69 31.5q4 2 16 6.5t21 10t16 13.5
q17 19 17 41q0 24 -17 41q-16 16 -41 16t-40 -15q-11 -11 -17 -22.5t-14 -32.5q-13 -37 -32.5 -70t-67.5 -81l-25 -24q-3 -4 -9 -4q-4 0 -7 2q-5 3 -17 7q-10 3 -10 13v36q0 43 5.5 67t15.5 47q10 20 10 37q0 14 -11 25t-25 11q-15 0 -26 -11t-11 -25q0 -17 10 -37
q10 -23 15.5 -47t5.5 -67v-36q0 -10 -10 -13q-2 -1 -7.5 -2.5t-9.5 -4.5q-3 -2 -7 -2q-6 0 -10 4l-25 24q-49 49 -69.5 83t-31.5 69q-7 19 -13 31t-17 23q-16 16 -40 16q-22 0 -40 -16q-17 -17 -17 -42t16 -41q11 -11 22.5 -17t30.5 -13q36 -13 69 -33t82 -67l26 -25
q4 -4 4 -8q0 -3 -3 -8q-2 -3 -7 -16q-3 -11 -12 -11h-36q-44 0 -68.5 6t-46.5 16q-2 1 -13 5.5t-24 4.5q-14 0 -25 -11.5t-11 -25.5q0 -15 11 -26t25 -11q13 0 24 4.5t13 5.5q22 10 46.5 16t68.5 6h36q9 0 12 -11q5 -12 8 -17q2 -6 2 -7q0 -5 -4 -9l-26 -27
q-48 -49 -81.5 -68.5t-69.5 -31.5q-20 -7 -31.5 -13t-22.5 -17q-16 -15 -16 -40q0 -24 16 -41q16 -16 42 -16q25 0 40 15zM422 343.5q-16 16.5 -16 38.5t16 38t38 16t38 -16t16 -38q0 -23 -16 -39t-38 -16t-38 16.5zM492 354l-6 6q-10 -13 -26 -13q-14 0 -24 10.5t-10 24.5
t10.5 24t23.5 10q16 0 27 -13l5 6q-10 15 -32 15q-17 0 -30 -12.5t-13 -29.5t13 -30t30 -13q22 0 32 15z" />
    <glyph glyph-name="i.loclTRK" horiz-adv-x="209" 
d="M72 0v549h65v-549h-65zM70.5 690.5q-14.5 14.5 -14.5 34.5t14.5 34t34.5 14t34.5 -14t14.5 -34t-14.5 -34.5t-34.5 -14.5t-34.5 14.5z" />
    <glyph glyph-name="uni030C.alt" 
d="M-108 586q23 30 23 76q0 9 -2 29h-12q-9 -18 -31 -18q-21 0 -35 13.5t-14 35.5t15 36.5t40 14.5q36 0 57 -29t21 -77q0 -57 -31.5 -101t-98.5 -54v36q45 8 68 38z" />
    <glyph glyph-name="uni0308.case" 
d="M-337.5 826.5q-14.5 14.5 -14.5 34.5t14.5 34t34.5 14t34.5 -14t14.5 -34t-14.5 -34.5t-34.5 -14.5t-34.5 14.5zM-145.5 826.5q-14.5 14.5 -14.5 34.5t14.5 34t34.5 14t34.5 -14t14.5 -34t-14.5 -34.5t-34.5 -14.5t-34.5 14.5z" />
    <glyph glyph-name="uni0307.case" 
d="M-145.5 826.5q-14.5 14.5 -14.5 34.5t14.5 34t34.5 14t34.5 -14t14.5 -34t-14.5 -34.5t-34.5 -14.5t-34.5 14.5z" />
    <glyph glyph-name="uni0328.case" 
d="M-130 -201.5q-27 22.5 -27 64.5q0 41 25 70.5t79 55.5v11h37q-51 -48 -70.5 -73.5t-19.5 -53.5q0 -26 15 -40.5t43 -14.5q16 0 32 4v-41q-20 -5 -43 -5q-44 0 -71 22.5z" />
    <glyph glyph-name="uni0335.case" 
d="M-467 311v57h391v-57h-391z" />
    <glyph glyph-name="uni0337.case" 
d="M-388 242v53l359 185v-52z" />
    <glyph glyph-name="uni0338.case" 
d="M-659 28l-35 35l657 657l35 -36z" />
    <glyph glyph-name="base_No" horiz-adv-x="449" 
d="M0 0v58h449v-58h-449z" />
    </font>
</defs>
</svg>
