<?xml version="1.0" standalone="no"?>
<!DOCTYPE svg PUBLIC "-//W3C//DTD SVG 1.1//EN" "http://www.w3.org/Graphics/SVG/1.1/DTD/svg11.dtd" >
<svg xmlns="http://www.w3.org/2000/svg" xmlns:xlink="http://www.w3.org/1999/xlink" version="1.1">
<metadata>
Created by FontForge 20170731 at Wed Apr  8 16:30:25 2020
 By Aleksey,,,
Copyright (c) 2020 by Alfredo Marco Pradil. All rights reserved.
</metadata>
<defs>
<font id="OpenSauceSans-Regular" horiz-adv-x="0" >
  <font-face 
    font-family="Open Sauce Sans"
    font-weight="400"
    font-stretch="normal"
    units-per-em="1000"
    panose-1="0 0 5 0 0 0 0 0 0 0"
    ascent="763"
    descent="-237"
    x-height="553"
    cap-height="763"
    bbox="-699 -237 1221 1028"
    underline-thickness="50"
    underline-position="-150"
    unicode-range="U+0020-FB02"
  />
<missing-glyph horiz-adv-x="618" 
d="M79 0v553h460v-553h-460zM119 40h380v473h-380v-473z" />
    <glyph glyph-name="fi" unicode="fi" horiz-adv-x="580" 
d="M118 478h-92v75h92v60q0 74 36 112t107 38h71v-75h-52q-40 0 -58.5 -21t-18.5 -65q0 -13 -1.5 -23.5t-8.5 -25.5l10 -10q15 7 24.5 8.5t21.5 1.5h83v-75h-129v-478h-85v478zM424 0v553h85v-553h-85zM421 666.5q-19 18.5 -19 44.5t19 44t46 18t46 -18t19 -44t-19 -44.5
t-46 -18.5t-46 18.5z" />
    <glyph glyph-name="fl" unicode="fl" horiz-adv-x="630" 
d="M118 478h-92v75h92v60q0 74 36 112t107 38h71v-75h-52q-40 0 -58.5 -21t-18.5 -65q0 -13 -1.5 -23.5t-8.5 -25.5l10 -10q15 7 24.5 8.5t21.5 1.5h83v-75h-129v-478h-85v478zM454 30q-32 30 -32 109v624h85v-611q0 -29 4 -44.5t18 -24t44 -8.5h27v-75h-47q-67 0 -99 30z
" />
    <glyph glyph-name="s_a_u_c_e_l_o_g_o.liga" unicode="saucelogo" horiz-adv-x="921" 
d="M79 10v743q0 10 9 10h744q10 0 10 -10v-743q0 -10 -10 -10h-744q-9 0 -9 10zM255 94q11 11 17 22.5t14 31.5q13 36 33 69t67 82l25 26q4 4 8 4t9 -3q7 -4 17 -6q10 -3 10 -13v-36q0 -43 -5.5 -67t-15.5 -47q-10 -20 -10 -37q0 -14 11 -25t25 -11q15 0 26 11t11 25
q0 17 -10 37q-10 23 -15.5 47t-5.5 67v36q0 10 10 13q13 4 15 6q5 3 8 3q5 0 9 -4l26 -26q48 -48 68 -81.5t33 -69.5q6 -19 12 -30.5t18 -23.5q17 -15 40 -15q26 0 41 15q17 17 17 42t-16 40q-12 12 -23.5 18t-30.5 12q-37 13 -70 32.5t-81 67.5l-26 26q-4 4 -4 9q0 3 3 7
q6 12 7 18q3 11 12 11h36q44 0 68.5 -6t46.5 -16q2 -1 13 -5.5t24 -4.5q14 0 25 11t11 26q0 14 -11 25.5t-25 11.5q-13 0 -24 -4.5t-13 -5.5q-22 -10 -46.5 -16t-68.5 -6h-36q-9 0 -12 11q-4 10 -7 15t-3 8q0 4 4 8l26 26q48 48 82 68.5t69 31.5q4 2 16 6.5t21 10t16 13.5
q17 19 17 41q0 24 -17 41q-16 16 -41 16t-40 -15q-11 -11 -17 -22.5t-14 -32.5q-13 -37 -32.5 -70t-67.5 -81l-25 -24q-3 -4 -9 -4q-4 0 -7 2q-5 3 -17 7q-10 3 -10 13v36q0 43 5.5 67t15.5 47q10 20 10 37q0 14 -11 25t-25 11q-15 0 -26 -11t-11 -25q0 -17 10 -37
q10 -23 15.5 -47t5.5 -67v-36q0 -10 -10 -13q-2 -1 -7.5 -2.5t-9.5 -4.5q-3 -2 -7 -2q-6 0 -10 4l-25 24q-49 49 -69.5 83t-31.5 69q-7 19 -13 31t-17 23q-16 16 -40 16q-22 0 -40 -16q-17 -17 -17 -42t16 -41q11 -11 22.5 -17t30.5 -13q36 -13 69 -33t82 -67l26 -25
q4 -4 4 -8q0 -3 -3 -8q-2 -3 -7 -16q-3 -11 -12 -11h-36q-44 0 -68.5 6t-46.5 16q-2 1 -13 5.5t-24 4.5q-14 0 -25 -11.5t-11 -25.5q0 -15 11 -26t25 -11q13 0 24 4.5t13 5.5q22 10 46.5 16t68.5 6h36q9 0 12 -11q5 -12 8 -17q2 -6 2 -7q0 -5 -4 -9l-26 -27
q-48 -49 -81.5 -68.5t-69.5 -31.5q-20 -7 -31.5 -13t-22.5 -17q-16 -15 -16 -40q0 -24 16 -41q16 -16 42 -16q25 0 40 15zM422 343.5q-16 16.5 -16 38.5t16 38t38 16t38 -16t16 -38q0 -23 -16 -39t-38 -16t-38 16.5zM492 354l-6 6q-10 -13 -26 -13q-14 0 -24 10.5t-10 24.5
t10.5 24t23.5 10q16 0 27 -13l5 6q-10 15 -32 15q-17 0 -30 -12.5t-13 -29.5t13 -30t30 -13q22 0 32 15z" />
    <glyph glyph-name=".notdef" horiz-adv-x="618" 
d="M79 0v553h460v-553h-460zM119 40h380v473h-380v-473z" />
    <glyph glyph-name=".null" 
 />
    <glyph glyph-name="nonmarkingreturn" horiz-adv-x="333" 
 />
    <glyph glyph-name="space" unicode=" " horiz-adv-x="280" 
 />
    <glyph glyph-name="exclam" unicode="!" horiz-adv-x="253" 
d="M88 272q-4 116 -4 213v278h85v-278q0 -97 -4 -213q-2 -36 -2 -54h-73q0 18 -2 54zM84.5 7.5q-17.5 17.5 -17.5 42.5q0 24 17.5 41t42.5 17q23 0 40.5 -17t17.5 -41q0 -25 -17 -42.5t-41 -17.5q-25 0 -42.5 17.5z" />
    <glyph glyph-name="quotedbl" unicode="&#x22;" horiz-adv-x="355" 
d="M46 510v253h85v-253h-85zM223 510v253h85v-253h-85z" />
    <glyph glyph-name="numbersign" unicode="#" horiz-adv-x="751" 
d="M136 0l49 230h-133v60h146l39 197h-139v62h153l47 214h67l-47 -217h181l45 217h67l-47 -217h135v-59h-148l-42 -197h144v-60h-156l-48 -230h-67l49 230h-182l-46 -230h-67zM265 290h180l39 197h-180z" />
    <glyph glyph-name="dollar" unicode="$" horiz-adv-x="673" 
d="M133 64q-74 59 -91 167h92q11 -46 34.5 -78.5t54.5 -51.5q18 -11 43 -19q16 -6 27 -11.5t21 -15.5l11 9q-7 35 -8.5 59t-1.5 56v182q-72 14 -123 34t-85 60.5t-34 107.5q0 95 66 151.5t176 58.5v123h60v-125q88 -17 148.5 -71t76.5 -147h-89q-13 58 -57 98l-28 20
q-35 25 -50 37l-11 -9q7 -26 8.5 -42.5t1.5 -35.5v-187q76 -17 127.5 -39t85.5 -65.5t34 -116.5q0 -99 -64 -157.5t-183 -63.5v-134h-60v135q-108 12 -182 71zM317 481.5q-2 17.5 -2 38.5v102q0 21 1.5 38.5t8.5 44.5l-11 9q-26 -16 -48.5 -25t-30.5 -13q-35 -16 -53.5 -43
t-18.5 -62q0 -38 20 -62t59 -40q5 -2 25.5 -10.5t49.5 -29.5l11 8q-9 27 -11 44.5zM428 75q3 1 19.5 7t29.5 15q26 18 41 46t15 64q0 38 -16.5 65t-49.5 49q-14 9 -35 17q-35 15 -56 29l-11 -8q7 -30 8.5 -49.5t1.5 -44.5v-94q0 -30 -1.5 -54t-8.5 -57l11 -10q16 14 52 25z
" />
    <glyph glyph-name="percent" unicode="%" horiz-adv-x="788" 
d="M123.5 448q-34.5 24 -53 64t-18.5 87t18 86.5t52 63.5t79 24q42 0 76 -23t53.5 -63t19.5 -88q0 -49 -19 -89t-52.5 -63t-74.5 -23q-46 0 -80.5 24zM130 0l445 763h82l-445 -763h-82zM260 524q22 30 22 75q0 44 -22.5 75t-58.5 31q-38 0 -59 -30.5t-21 -75.5t21.5 -75
t61.5 -30q34 0 56 30zM509.5 13.5q-34.5 23.5 -53 63.5t-18.5 87t18 87t52 63.5t79 23.5q42 0 76 -23t53.5 -63t19.5 -89t-19 -88.5t-52.5 -62t-74.5 -22.5q-46 0 -80.5 23.5zM646 88q22 30 22 75t-22 75.5t-59 30.5q-38 0 -58.5 -30t-20.5 -75q0 -46 21 -76t61 -30
q34 0 56 30z" />
    <glyph glyph-name="ampersand" unicode="&#x26;" horiz-adv-x="727" 
d="M175 12q-55 22 -87 65t-32 102q0 109 109 183q27 18 45 24.5t51 5.5l3 14q-36 12 -70 47q-24 27 -38 61t-14 70q0 60 27 102.5t73 64.5t103 22q53 0 96.5 -21t69 -60.5t25.5 -92.5q0 -55 -28.5 -96t-78.5 -76q-18 -12 -36 -17t-46 -5l-3 -13q20 -8 32 -17.5t26 -27.5
l81 -99q13 -16 19.5 -29.5t9.5 -37.5l14 -3q28 47 40.5 94t20.5 104h84q-18 -154 -89 -250l102 -126h-111q-40 49 -40 77q0 6 1 9l-13 3q-4 -35 -74 -69q-63 -30 -150 -30q-67 0 -122 22zM388.5 493.5q27.5 20.5 45 48t17.5 63.5t-30.5 64.5t-75.5 28.5q-50 0 -84 -30.5
t-34 -81.5q0 -77 88 -139q46 26 73.5 46.5zM391.5 82q45.5 17 79.5 46l-181 222q-49 -27 -79 -48.5t-50 -51t-20 -66.5q0 -55 44 -87t113 -32q48 0 93.5 17z" />
    <glyph glyph-name="quotesingle" unicode="'" horiz-adv-x="177" 
d="M46 510v253h85v-253h-85z" />
    <glyph glyph-name="parenleft" unicode="(" horiz-adv-x="297" 
d="M58 380q0 144 30.5 264.5t89.5 227.5h95q-68 -119 -99 -237t-31 -255q0 -135 31.5 -255t97.5 -236h-94q-120 216 -120 491z" />
    <glyph glyph-name="parenright" unicode=")" horiz-adv-x="297" 
d="M122.5 125q31.5 120 31.5 255q0 137 -31 255t-99 237h95q59 -107 89.5 -227.5t30.5 -264.5q0 -275 -120 -491h-94q66 116 97.5 236z" />
    <glyph glyph-name="asterisk" unicode="*" horiz-adv-x="415" 
d="M125 538q24 23 61 51l-4 13q-14 -1 -37 -1q-46 0 -108 10l28 78q37 -18 62 -32t56 -39l11 8q-18 68 -27 137h82q-9 -71 -30 -137l11 -8q33 25 58 38.5t64 32.5l26 -79q-56 -9 -108 -9q-24 0 -38 1l-4 -13q37 -26 59 -47.5t52 -54.5l-69 -47q-36 76 -56 139h-14
q-13 -40 -25 -68.5t-32 -70.5l-66 47q24 28 48 51z" />
    <glyph glyph-name="plus" unicode="+" horiz-adv-x="636" 
d="M282 60v242h-242v71h242v242h71v-242h242v-71h-242v-242h-71z" />
    <glyph glyph-name="comma" unicode="," horiz-adv-x="270" 
d="M135 -90q25 29 25 72q0 15 -3 30h-12q-1 -11 -10.5 -16.5t-22.5 -5.5q-22 0 -37 15.5t-15 41.5q0 27 17.5 44t46.5 17q39 0 62.5 -32t23.5 -84q0 -61 -36.5 -108t-109.5 -55v45q46 7 71 36z" />
    <glyph glyph-name="hyphen" unicode="-" horiz-adv-x="344" 
d="M24 297v74h296v-74h-296z" />
    <glyph glyph-name="period" unicode="." horiz-adv-x="238" 
d="M78 7.5q-18 17.5 -18 42.5q0 24 18 41t43 17q23 0 40 -17.5t17 -40.5q0 -25 -17 -42.5t-40 -17.5q-25 0 -43 17.5z" />
    <glyph glyph-name="slash" unicode="/" horiz-adv-x="454" 
d="M76 -111h-79l346 874h79z" />
    <glyph glyph-name="zero" unicode="0" horiz-adv-x="660" 
d="M137.5 90q-69.5 99 -69.5 293q0 193 68.5 291.5t191.5 98.5q126 0 195 -99.5t69 -294.5q0 -192 -68 -290t-191 -98q-126 0 -195.5 99zM455.5 150.5q44.5 76.5 44.5 229.5q0 155 -46 232.5t-127 77.5q-80 0 -123.5 -77t-43.5 -231t44.5 -231t126.5 -77q80 0 124.5 76.5z
" />
    <glyph glyph-name="one" unicode="1" horiz-adv-x="432" 
d="M270 652l-12 5q-23 -41 -57 -69q-35 -30 -79.5 -50.5t-80.5 -29.5v90q70 14 129.5 63t91.5 102h90v-763h-92v591q0 31 10 61z" />
    <glyph glyph-name="two" unicode="2" horiz-adv-x="646" 
d="M56 82l244 202q82 68 122 127.5t40 131.5q0 69 -36 107.5t-105 38.5q-75 0 -117 -45.5t-48 -135.5h-92q5 121 73 192t183 71q70 0 123 -27t82 -77t29 -117q0 -92 -52 -170t-145 -155l-120 -100q-13 -11 -27.5 -22t-36.5 -24l6 -12q25 9 42 12.5t36 3.5h334v-83h-535v82z
" />
    <glyph glyph-name="three" unicode="3" horiz-adv-x="659" 
d="M137 55.5q-75 64.5 -81 174.5h92q8 -75 55 -115.5t136 -40.5q75 0 120 39.5t45 107.5q0 75 -55 108t-141 33h-47v83h45q63 0 107.5 32t44.5 95q0 54 -36 85.5t-96 31.5q-66 0 -107 -38t-48 -110h-92q3 66 36 119t87.5 82.5t119.5 29.5q68 0 120 -25.5t80 -70.5t28 -102
q0 -42 -18.5 -76.5t-50 -55.5t-70.5 -23v-16q80 -4 132.5 -52.5t52.5 -132.5q0 -65 -33.5 -117t-92.5 -81t-132 -29q-126 0 -201 64.5z" />
    <glyph glyph-name="four" unicode="4" horiz-adv-x="654" 
d="M400 0v182h-354v91l353 490h93v-498h116v-83h-116v-182h-92zM217 265h183v283q0 23 1.5 41.5t8.5 47.5l-12 4q-17 -28 -50 -77l-160 -226q-15 -22 -29.5 -39t-38.5 -39l6 -12q44 17 91 17z" />
    <glyph glyph-name="five" unicode="5" horiz-adv-x="651" 
d="M472 485.5q55 -32.5 86 -90t31 -131.5q0 -77 -34 -139t-94.5 -98t-136.5 -36q-69 0 -124.5 28.5t-89.5 80.5t-41 119h93q10 -68 56 -106.5t113 -38.5q77 0 121.5 53t44.5 135q0 79 -46 126t-122 47q-48 0 -88.5 -25t-62.5 -68h-101l76 421h400v-83h-331l-29 -160
q-1 -4 -4 -23.5t-15 -44.5l11 -7q66 73 162 73q70 0 125 -32.5z" />
    <glyph glyph-name="six" unicode="6" horiz-adv-x="656" 
d="M135.5 89q-68.5 99 -68.5 265q0 190 69 304.5t210 114.5q100 0 162.5 -55.5t80.5 -150.5h-87q-17 61 -55 92t-101 31q-84 0 -127.5 -58.5t-55.5 -163.5q-4 -34 -22 -83l12 -7q35 66 84.5 92.5t110.5 26.5q72 0 126.5 -32t84.5 -89t30 -129t-31 -131t-87 -92.5t-127 -33.5
q-140 0 -208.5 99zM425 96q35 23 53.5 61.5t18.5 85.5q0 77 -41.5 124t-112.5 47q-49 0 -89 -22t-62.5 -61t-22.5 -88t22.5 -87.5t62 -60.5t89.5 -22q47 0 82 23z" />
    <glyph glyph-name="seven" unicode="7" horiz-adv-x="611" 
d="M464.5 658q12.5 14 38.5 36l-7 12q-31 -15 -52 -20.5t-45 -5.5h-363v83h532v-79l-352 -684h-101l324 619q13 25 25.5 39z" />
    <glyph glyph-name="eight" unicode="8" horiz-adv-x="652" 
d="M188.5 20q-59.5 30 -92 84t-32.5 123q0 68 38 119.5t106 64.5v12q-53 11 -83 52.5t-30 92.5q0 60 29.5 106.5t82.5 72.5t119 26t119 -26t82.5 -72.5t29.5 -106.5q0 -51 -30.5 -93t-82.5 -52v-12q68 -13 106 -64.5t38 -119.5q0 -69 -32.5 -123t-92 -84t-137.5 -30
t-137.5 30zM428.5 479.5q36.5 31.5 36.5 87.5q0 55 -38 89t-101 34t-101 -34t-38 -89q0 -56 36.5 -87.5t102.5 -31.5t102.5 31.5zM448.5 113.5q47.5 40.5 47.5 113.5q0 68 -46 109.5t-124 41.5t-124 -41.5t-46 -109.5q0 -73 47.5 -113.5t122.5 -40.5t122.5 40.5z" />
    <glyph glyph-name="nine" unicode="9" horiz-adv-x="656" 
d="M520.5 674q68.5 -99 68.5 -265q0 -190 -69 -304.5t-210 -114.5q-100 0 -162.5 55.5t-80.5 150.5h87q17 -61 55 -92t101 -31q84 0 127.5 58.5t55.5 163.5q4 34 22 83l-12 7q-35 -66 -84.5 -92.5t-110.5 -26.5q-72 0 -126.5 32t-84.5 89t-30 129t31 131t87 92.5t127 33.5
q140 0 208.5 -99zM231 667q-35 -23 -53.5 -61.5t-18.5 -85.5q0 -77 41.5 -124t112.5 -47q49 0 89 22t62.5 61t22.5 88t-22.5 87.5t-62 60.5t-89.5 22q-47 0 -82 -23z" />
    <glyph glyph-name="colon" unicode=":" horiz-adv-x="203" 
d="M59.5 425.5q-17.5 17.5 -17.5 42.5q0 24 18 41.5t42 17.5t41 -17.5t17 -41.5t-17 -42t-41 -18q-25 0 -42.5 17.5zM59.5 7.5q-17.5 17.5 -17.5 42.5q0 24 17.5 41t42.5 17q23 0 40.5 -17t17.5 -41q0 -25 -17 -42.5t-41 -17.5q-25 0 -42.5 17.5z" />
    <glyph glyph-name="semicolon" unicode=";" horiz-adv-x="270" 
d="M78 425.5q-18 17.5 -18 42.5q0 24 18 41.5t42 17.5q23 0 40.5 -17.5t17.5 -41.5q0 -25 -17.5 -42.5t-40.5 -17.5q-24 0 -42 17.5zM135 -90q25 29 25 72q0 15 -3 30h-12q-1 -11 -10.5 -16.5t-22.5 -5.5q-22 0 -37 15.5t-15 41.5q0 27 17.5 44t46.5 17q39 0 62.5 -32
t23.5 -84q0 -61 -36.5 -108t-109.5 -55v45q46 7 71 36z" />
    <glyph glyph-name="less" unicode="&#x3c;" horiz-adv-x="559" 
d="M44 297v85l467 176v-75l-314 -115q-25 -9 -42.5 -13t-44.5 -8v-14q27 -4 44.5 -8t42.5 -13l314 -116v-74z" />
    <glyph glyph-name="equal" unicode="=" horiz-adv-x="506" 
d="M36 416v80h433v-80h-433zM36 194v80h433v-80h-433z" />
    <glyph glyph-name="greater" unicode="&#x3e;" horiz-adv-x="559" 
d="M48 196l314 116q25 9 42.5 13t44.5 8v14q-27 4 -44.5 8t-42.5 13l-314 115v75l467 -176v-85l-467 -175v74z" />
    <glyph glyph-name="question" unicode="?" horiz-adv-x="547" 
d="M245.5 340.5q15.5 38.5 37 60.5t56.5 48q28 20 43.5 35t26 37t10.5 53q0 60 -38.5 92t-105.5 32q-71 0 -111 -38t-45 -105h-78q6 101 68.5 159t160.5 58q99 0 163 -53t64 -149q0 -42 -12.5 -71.5t-31 -48.5t-49.5 -42q-31 -24 -49.5 -43t-31.5 -48.5t-13 -72.5v-28h-80
v28q0 58 15.5 96.5zM227.5 7.5q-17.5 17.5 -17.5 42.5q0 23 17.5 40.5t41.5 17.5t41.5 -17t17.5 -41q0 -25 -17.5 -42.5t-41.5 -17.5t-41.5 17.5z" />
    <glyph glyph-name="at" unicode="@" horiz-adv-x="1053" 
d="M279.5 -130q-107.5 59 -168.5 166t-61 244q0 139 61.5 252t171 177.5t249.5 64.5q134 0 241.5 -61t168 -169t60.5 -244q0 -95 -30 -172t-87 -122t-133 -45q-67 0 -96.5 40t-30.5 129l-9 3q-56 -110 -166 -110q-81 0 -131 55t-50 153q0 84 35.5 163t99.5 129t144 50
q47 0 79.5 -21t56.5 -70l12 1q-3 21 -3 33q0 13 4 29h74l-12 -57q-33 -155 -48.5 -240t-15.5 -130q0 -42 17 -63.5t50 -21.5q49 0 86.5 35t58 95.5t20.5 134.5q0 117 -50 208t-139.5 141.5t-203.5 50.5q-119 0 -212.5 -54.5t-145 -149.5t-51.5 -214q0 -117 50.5 -206.5
t140.5 -138t206 -48.5q71 0 136 23v-79q-61 -20 -137 -20q-134 0 -241.5 59zM555.5 138.5q46.5 40.5 72.5 104t26 127.5q0 65 -27.5 96t-76.5 31q-60 0 -107 -39t-73 -101t-26 -127q0 -67 28 -99.5t78 -32.5q59 0 105.5 40.5z" />
    <glyph glyph-name="A" unicode="A" horiz-adv-x="694" 
d="M14 0l281 763h104l281 -763h-93l-67 187h-346l-67 -187h-93zM489 269l-116 327q-9 26 -13.5 43t-4.5 38h-16q0 -21 -4.5 -38t-13.5 -43l-116 -327h284z" />
    <glyph glyph-name="B" unicode="B" horiz-adv-x="690" 
d="M79 763h287q125 0 184 -56q51 -48 51 -135q0 -70 -35.5 -117t-94.5 -47v-16q80 0 124 -47.5t44 -129.5q0 -92 -56 -148q-38 -36 -93 -51.5t-112 -15.5h-299v763zM470.5 465q37.5 33 37.5 92q0 54 -32 84q-40 39 -130 39h-175v-248h195q67 0 104.5 33zM445 90q37 7 65 33
q37 34 37 98q0 83 -49 106t-110 23h-217v-267h197q40 0 77 7z" />
    <glyph glyph-name="C" unicode="C" horiz-adv-x="748" 
d="M207 43.5q-79 53.5 -118 142.5t-39 196t39 196t118 142t195 53q83 0 148 -28t105 -78t52 -115h-100q-14 64 -69.5 101.5t-137.5 37.5q-83 0 -141 -39.5t-87.5 -109.5t-29.5 -160q0 -91 29.5 -161t87.5 -109.5t141 -39.5q84 0 138.5 40.5t68.5 118.5h100
q-18 -112 -98.5 -176.5t-206.5 -64.5q-116 0 -195 53.5z" />
    <glyph glyph-name="D" unicode="D" horiz-adv-x="732" 
d="M79 763h210q190 0 291 -100t101 -284q0 -181 -101.5 -280t-291.5 -99h-209v763zM507 148q82 65 82 231q0 301 -301 301h-117v-597h116q138 0 220 65z" />
    <glyph glyph-name="E" unicode="E" horiz-adv-x="616" 
d="M79 0v763h493v-83h-401v-256h354v-82h-354v-259h401v-83h-493z" />
    <glyph glyph-name="F" unicode="F" horiz-adv-x="601" 
d="M79 0v763h493v-83h-401v-256h354v-82h-354v-342h-92z" />
    <glyph glyph-name="G" unicode="G" horiz-adv-x="807" 
d="M209.5 44.5q-81.5 54.5 -120.5 143t-39 193.5t39.5 194t120 143.5t199.5 54.5q124 0 206.5 -59.5t115.5 -160.5h-103q-26 64 -83 101t-138 37q-89 0 -148.5 -42.5t-88 -112.5t-28.5 -152q0 -86 30 -157t90.5 -113t146.5 -42q80 0 140.5 37.5t86.5 101.5q8 20 12 39t6 34
q2 12 4.5 22t7.5 15l-12 12q-13 -11 -26 -13.5t-50 -2.5h-107v82h273v-399h-84v126h-16q0 -27 -17 -50.5t-47 -41.5q-34 -20 -79 -32t-91 -12q-119 0 -200.5 54.5z" />
    <glyph glyph-name="H" unicode="H" horiz-adv-x="725" 
d="M79 0v763h92v-338h382v338h92v-763h-92v343h-382v-343h-92z" />
    <glyph glyph-name="I" unicode="I" horiz-adv-x="251" 
d="M79 0v763h92v-763h-92z" />
    <glyph glyph-name="J" unicode="J" horiz-adv-x="383" 
d="M16 83h96q52 0 77.5 24.5t25.5 77.5v578h92v-579q0 -62 -17 -102t-59.5 -61t-118.5 -21h-96v83z" />
    <glyph glyph-name="K" unicode="K" horiz-adv-x="632" 
d="M79 763h92v-353h16q0 14 8.5 26.5t21.5 26.5l271 300h118l-339 -366l357 -397h-122l-285 319q-3 3 -7.5 8t-10.5 13q-14 19 -33 39l-12 -12q11 -11 14 -21.5t3 -39.5v-306h-92v763z" />
    <glyph glyph-name="L" unicode="L" horiz-adv-x="528" 
d="M79 0v763h92v-680h342v-83h-434z" />
    <glyph glyph-name="M" unicode="M" horiz-adv-x="899" 
d="M79 763h165l176 -557q12 -38 16.5 -61t4.5 -63h16q0 40 4.5 63t16.5 61l176 557h166v-763h-92v590q0 45 4 102l-16 2q-9 -51 -27 -104l-194 -590h-91l-196 590q-15 46 -26 104l-15 -2q4 -57 4 -102v-590h-92v763z" />
    <glyph glyph-name="N" unicode="N" horiz-adv-x="727" 
d="M79 763h134l293 -574q24 -46 38 -95l16 3q-4 44 -4 91v575h91v-763h-134l-293 574q-13 26 -21 45t-16 48l-16 -3q4 -44 4 -92v-572h-92v763z" />
    <glyph glyph-name="O" unicode="O" horiz-adv-x="811" 
d="M209 43q-80 53 -119.5 142.5t-39.5 196.5t39.5 196t119.5 142t195 53q116 0 196.5 -53t120 -141.5t39.5 -196.5t-39.5 -197t-120 -142t-196.5 -53q-115 0 -195 53zM547.5 112.5q59.5 39.5 90 109.5t30.5 160t-30.5 159.5t-90 109t-143.5 39.5q-83 0 -142 -39.5
t-89.5 -109t-30.5 -159.5t30.5 -160t89.5 -109.5t142 -39.5q84 0 143.5 39.5z" />
    <glyph glyph-name="P" unicode="P" horiz-adv-x="640" 
d="M79 763h284q113 0 177.5 -55.5t64.5 -162.5q0 -104 -65.5 -163.5t-176.5 -59.5h-192v-322h-92v763zM472 439.5q42 35.5 42 102.5q0 66 -43 102t-120 36h-180v-276h180q79 0 121 35.5z" />
    <glyph glyph-name="Q" unicode="Q" horiz-adv-x="812" 
d="M581.5 -1.5q-5.5 13.5 -5.5 36.5l-13 4q-31 -29 -73 -40q-37 -9 -86 -9q-115 0 -195 53t-119.5 142.5t-39.5 196.5t39.5 196t119.5 142t195 53q116 0 196.5 -53t120 -141.5t39.5 -196.5q0 -96 -31.5 -177.5t-92.5 -134.5l100 -157h-101l-38 56q-10 16 -15.5 29.5z
M547.5 111.5q59.5 39.5 90 109.5t30.5 161q0 90 -30.5 160t-90 109.5t-143.5 39.5q-82 0 -141.5 -39.5t-90 -109.5t-30.5 -160t30.5 -160.5t89.5 -110t142 -39.5q84 0 143.5 39.5z" />
    <glyph glyph-name="R" unicode="R" horiz-adv-x="660" 
d="M79 763h284q113 0 177.5 -55.5t64.5 -162.5q0 -88 -48 -145q-41 -47 -84 -47q-6 0 -16 2l-6 -13q14 -7 20.5 -18t15.5 -30l128 -294h-98l-136 324h-210v-324h-92v763zM472 439.5q42 35.5 42 102.5q0 66 -43 102t-120 36h-180v-276h180q79 0 121 35.5z" />
    <glyph glyph-name="S" unicode="S" horiz-adv-x="673" 
d="M146.5 50q-86.5 60 -104.5 181h93q17 -84 79.5 -121.5t144.5 -37.5t126.5 34t44.5 101q0 51 -28 80.5t-70 44t-113 29.5q-80 17 -129 34.5t-83 57.5t-34 110q0 64 31.5 111.5t88 73t130.5 25.5q105 0 182 -54.5t95 -165.5h-89q-15 73 -67 105.5t-122 32.5
q-76 0 -116.5 -32t-40.5 -88q0 -44 25.5 -69.5t64 -38.5t105.5 -27q85 -18 137 -37.5t88.5 -63.5t36.5 -122q0 -103 -69.5 -163t-197.5 -60q-122 0 -208.5 60z" />
    <glyph glyph-name="T" unicode="T" horiz-adv-x="637" 
d="M272 0v680h-258v83h609v-83h-259v-680h-92z" />
    <glyph glyph-name="U" unicode="U" horiz-adv-x="711" 
d="M143 62q-71 72 -71 202v499h92v-499q0 -92 47 -142t144 -50t144 50t47 142v499h92v-499q0 -130 -71 -202t-212 -72t-212 72z" />
    <glyph glyph-name="V" unicode="V" horiz-adv-x="694" 
d="M14 763h93l214 -595q10 -28 14 -45.5t4 -35.5h16q0 18 4 35.5t14 45.5l214 595h93l-281 -763h-104z" />
    <glyph glyph-name="W" unicode="W" horiz-adv-x="1074" 
d="M20 763h96l162 -543q12 -38 15.5 -55t3.5 -33h16q0 16 4 34t14 54l162 543h88l162 -543q10 -36 14 -54t4 -34h16q0 16 3.5 33t15.5 55l162 543h96l-226 -763h-104l-169 553q-10 34 -10 69h-16q0 -35 -10 -69l-169 -553h-104z" />
    <glyph glyph-name="X" unicode="X" horiz-adv-x="684" 
d="M280 384l-260 379h110l175 -260q17 -25 23 -40.5t6 -34.5h16q0 19 6 34.5t23 40.5l175 260h110l-260 -379l264 -384h-109l-172 249q-22 32 -29.5 49.5t-7.5 38.5h-16q0 -21 -7.5 -38.5t-29.5 -49.5l-172 -249h-109z" />
    <glyph glyph-name="Y" unicode="Y" horiz-adv-x="674" 
d="M290 292l-286 471h107l187 -315q19 -32 25 -46t6 -38h16q0 24 6.5 39.5t24.5 45.5l188 314h105l-283 -471v-292h-96v292z" />
    <glyph glyph-name="Z" unicode="Z" horiz-adv-x="634" 
d="M29 67l414 554q25 34 45 57l-6 12q-21 -7 -38 -8.5t-39 -1.5h-352v83h549v-69l-404 -543q-21 -29 -52 -66l6 -12q23 7 41.5 8.5t43.5 1.5h364v-83h-572v67z" />
    <glyph glyph-name="bracketleft" unicode="[" horiz-adv-x="342" 
d="M97 -110v982h219v-73h-134v-836h134v-73h-219z" />
    <glyph glyph-name="backslash" unicode="\" horiz-adv-x="454" 
d="M378 -111l-346 874h79l346 -874h-79z" />
    <glyph glyph-name="bracketright" unicode="]" horiz-adv-x="342" 
d="M245 -110h-219v73h134v836h-134v73h219v-982z" />
    <glyph glyph-name="asciicircum" unicode="^" horiz-adv-x="538" 
d="M226 763h85l176 -467h-75l-94 257q-14 38 -23.5 68.5t-18.5 75.5h-14q-9 -45 -18.5 -75.5t-23.5 -68.5l-95 -257h-74z" />
    <glyph glyph-name="underscore" unicode="_" horiz-adv-x="411" 
d="M-14 -64v64h439v-64h-439z" />
    <glyph glyph-name="grave" unicode="`" horiz-adv-x="249" 
d="M235 611h-78l-143 152h104z" />
    <glyph glyph-name="a" unicode="a" horiz-adv-x="576" 
d="M96.5 32q-48.5 42 -48.5 115q0 72 54 114q44 35 127 52l197 38q1 64 -34 99q-38 38 -102 38q-51 0 -88.5 -27.5t-47.5 -73.5h-85q14 83 76.5 129.5t145.5 46.5q49 0 91 -14.5t71 -42.5q38 -36 48 -83t10 -97v-326h-85v26q0 25 10 57l-14 6q-27 -43 -63 -67
q-25 -17 -56.5 -24.5t-74.5 -7.5q-83 0 -131.5 42zM326 84q49 25 72 67q17 30 22.5 57t6.5 33q3 15 8 22t15 8l-3 16l-129 -27l-71 -14q-62 -12 -91 -39q-23 -23 -23 -58q0 -38 28.5 -61t76.5 -23t88 19z" />
    <glyph glyph-name="b" unicode="b" horiz-adv-x="634" 
d="M237.5 12q-39.5 22 -78.5 75l-14 -9q7 -9 9.5 -18.5t2.5 -23.5v-36h-85v763h85v-246q0 -14 -2.5 -23.5t-9.5 -18.5l14 -9q39 53 78.5 75t100.5 22q74 0 129.5 -36t86 -101.5t30.5 -149.5t-30.5 -149t-86.5 -101t-129 -36q-61 0 -100.5 22zM419.5 92.5q38.5 27.5 59 75.5
t20.5 108q0 61 -20.5 109t-59 75.5t-89.5 27.5t-91 -27.5t-62.5 -75.5t-22.5 -109q0 -60 22.5 -108.5t62.5 -75.5t91 -27t89.5 27.5z" />
    <glyph glyph-name="c" unicode="c" horiz-adv-x="602" 
d="M177 27q-61 37 -95 103t-34 149q0 81 34 146t95 101.5t139 36.5q93 0 157.5 -47.5t83.5 -128.5h-91q-16 46 -56.5 73.5t-93.5 27.5q-52 0 -93.5 -27t-65.5 -74.5t-24 -107.5q0 -62 23.5 -110.5t65.5 -76t94 -27.5q57 0 98.5 31t55.5 82h91q-18 -88 -84.5 -138t-160.5 -50
q-78 0 -139 37z" />
    <glyph glyph-name="d" unicode="d" horiz-adv-x="634" 
d="M167 26q-56 36 -86.5 101t-30.5 149t30.5 149.5t86 101.5t129.5 36q61 0 100.5 -22t78.5 -75l14 9q-7 9 -9.5 18.5t-2.5 23.5v246h85v-763h-85v36q0 14 2.5 23.5t9.5 18.5l-14 9q-39 -53 -78.5 -75t-100.5 -22q-73 0 -129 36zM395 92q40 27 62.5 75.5t22.5 108.5
q0 61 -22.5 109t-62.5 75.5t-91 27.5t-89.5 -27.5t-59 -75.5t-20.5 -109q0 -60 20.5 -108t59 -75.5t89.5 -27.5t91 27z" />
    <glyph glyph-name="e" unicode="e" horiz-adv-x="629" 
d="M177.5 27q-61.5 37 -95.5 102t-34 146q0 77 32 142.5t92.5 105.5t142.5 40q71 0 132 -32t98 -93.5t37 -147.5v-30h-395h-27.5t-37.5 2l-3 -16q9 -2 12.5 -6.5t6 -15t5.5 -19.5q21 -64 67.5 -102t105.5 -38q60 0 103 32t62 81h91q-27 -84 -92 -136t-163 -52
q-78 0 -139.5 37zM161.5 330.5q11.5 4.5 28.5 4.5h248q19 0 32 -4.5t25 -14.5l11 12q-10 7 -12.5 12.5t-4.5 14.5q-3 18 -10 34q-21 47 -64.5 73t-97.5 26q-55 0 -96.5 -26t-64.5 -73q-9 -19 -11 -34q-1 -9 -4 -14t-13 -13l11 -12q11 10 22.5 14.5z" />
    <glyph glyph-name="f" unicode="f" horiz-adv-x="353" 
d="M118 478h-92v75h92v60q0 74 36 112t107 38h71v-75h-52q-40 0 -58.5 -21t-18.5 -65q0 -13 -1.5 -23.5t-8.5 -25.5l10 -10q15 7 24.5 8.5t21.5 1.5h83v-75h-129v-478h-85v478z" />
    <glyph glyph-name="g" unicode="g" horiz-adv-x="635" 
d="M151.5 -179q-68.5 41 -83.5 134h87q26 -100 159 -100q165 0 165 148v33q0 18 2 25t10 17l-14 9q-39 -53 -78.5 -75t-100.5 -22q-73 0 -129 36t-86.5 100.5t-30.5 147.5q0 85 30.5 150.5t86 102t128.5 36.5q62 0 101.5 -22t78.5 -75l14 9q-7 9 -9.5 18.5t-2.5 23.5v36h85
v-534q0 -128 -66 -183.5t-183 -55.5q-95 0 -163.5 41zM397 92.5q40 27.5 62.5 75.5t22.5 109q0 60 -22.5 108t-63 75.5t-90.5 27.5q-51 0 -89.5 -27.5t-59 -75.5t-20.5 -108q0 -61 20.5 -109t59 -75.5t89.5 -27.5t91 27.5z" />
    <glyph glyph-name="h" unicode="h" horiz-adv-x="577" 
d="M72 763h85v-246q0 -14 -2.5 -23.5t-9.5 -18.5l14 -9q38 52 75 74.5t87 22.5q117 0 163 -87q17 -33 21.5 -67.5t4.5 -75.5v-333h-85v333q0 88 -32 124q-28 31 -85 31q-63 0 -101 -41q-27 -28 -38.5 -77t-11.5 -134v-236h-85v763z" />
    <glyph glyph-name="i" unicode="i" horiz-adv-x="227" 
d="M71 0v553h85v-553h-85zM68 666.5q-19 18.5 -19 44.5t19 44t46 18t46 -18t19 -44t-19 -44.5t-46 -18.5t-46 18.5z" />
    <glyph glyph-name="j" unicode="j" horiz-adv-x="228" 
d="M-58 -132h52q38 0 58 18t20 66v601h85v-612q0 -75 -36 -113t-107 -38h-72v78zM68 666.5q-19 18.5 -19 44.5t19 44t46 18t46 -18t19 -44t-19 -44.5t-46 -18.5t-46 18.5z" />
    <glyph glyph-name="k" unicode="k" horiz-adv-x="554" 
d="M72 763h85v-338q0 -25 -1.5 -44t-8.5 -42l12 -6l25 23l26 24l190 173h118l-237 -212q-11 -10 -21.5 -15t-25.5 -9v-14q27 -8 47 -28l262 -275h-116l-217 232l-19 19q-8 10 -32 34l-12 -5q7 -26 8.5 -47.5t1.5 -50.5v-182h-85v763z" />
    <glyph glyph-name="l" unicode="l" horiz-adv-x="277" 
d="M101 30q-32 30 -32 109v624h85v-611q0 -29 4 -44.5t18 -24t44 -8.5h27v-75h-47q-67 0 -99 30z" />
    <glyph glyph-name="m" unicode="m" horiz-adv-x="899" 
d="M71 553h85v-36q0 -14 -2.5 -23.5t-9.5 -18.5l14 -9q38 52 75 74.5t87 22.5q57 0 98 -26.5t48 -75.5h13q45 102 169 102q92 0 138 -52.5t46 -150.5v-360h-85v340q0 71 -29.5 109.5t-82.5 38.5q-55 0 -90 -37q-28 -30 -39.5 -78t-11.5 -123v-250h-85v340q0 70 -30.5 109
t-82.5 39q-55 0 -90 -40q-25 -28 -37.5 -74.5t-12.5 -123.5v-250h-85v553z" />
    <glyph glyph-name="n" unicode="n" horiz-adv-x="576" 
d="M71 553h85v-36q0 -14 -2.5 -23.5t-9.5 -18.5l14 -9q38 52 75 74.5t87 22.5q117 0 163 -87q17 -33 21.5 -67.5t4.5 -75.5v-333h-85v333q0 88 -32 124q-28 31 -85 31q-63 0 -101 -41q-27 -28 -38.5 -77t-11.5 -134v-236h-85v553z" />
    <glyph glyph-name="o" unicode="o" horiz-adv-x="639" 
d="M178.5 27q-61.5 37 -96 103t-34.5 149q0 81 34.5 146t96 101.5t139.5 36.5t140 -36.5t97 -101.5t35 -146q0 -83 -34.5 -148.5t-96.5 -103t-141 -37.5q-78 0 -139.5 37zM412.5 93q42.5 28 67 76.5t24.5 109.5q0 58 -24 106t-66.5 75.5t-95.5 27.5q-52 0 -94.5 -27
t-66.5 -75t-24 -107q0 -61 24 -110t66.5 -76.5t94.5 -27.5t94.5 28z" />
    <glyph glyph-name="p" unicode="p" horiz-adv-x="634" 
d="M467 527q56 -36 86.5 -101t30.5 -149t-30.5 -149.5t-86 -101.5t-129.5 -36q-61 0 -100.5 22t-78.5 75l-14 -9q7 -9 9.5 -18.5t2.5 -23.5v-246h-85v763h85v-36q0 -14 -2.5 -23.5t-9.5 -18.5l14 -9q39 53 78.5 75t100.5 22q73 0 129 -36zM239 461q-40 -27 -62.5 -75.5
t-22.5 -108.5q0 -61 22.5 -109t62.5 -75.5t91 -27.5t89.5 27.5t59 75.5t20.5 109q0 60 -20.5 108t-59 75.5t-89.5 27.5t-91 -27z" />
    <glyph glyph-name="q" unicode="q" horiz-adv-x="643" 
d="M510 -179.5q-33 30.5 -33 100.5v115q0 19 2 25.5t10 16.5l-14 9q-39 -53 -78.5 -75t-100.5 -22q-74 0 -129.5 36t-86 101.5t-30.5 149.5t30.5 149t86.5 101t129 36q61 0 100.5 -22t78.5 -75l14 9q-7 9 -9.5 18.5t-2.5 23.5v36h85v-639q0 -24 13.5 -35t43.5 -11h49v-78
h-49q-76 0 -109 30.5zM395 92.5q40 27.5 62.5 75.5t22.5 109q0 60 -22.5 108t-63 75.5t-90.5 27.5q-51 0 -89.5 -27.5t-59 -75.5t-20.5 -108q0 -61 20.5 -109t59 -75.5t89.5 -27.5t91 27.5z" />
    <glyph glyph-name="r" unicode="r" horiz-adv-x="363" 
d="M71 553h85v-36q0 -14 -2.5 -23.5t-9.5 -18.5l14 -9q34 51 75.5 74t103.5 23h4v-85h-29q-67 0 -107 -40q-49 -47 -49 -147v-291h-85v553z" />
    <glyph glyph-name="s" unicode="s" horiz-adv-x="557" 
d="M123 40q-66 50 -80 138h89q11 -53 51.5 -83t111.5 -30q58 0 92.5 22t34.5 63q0 32 -20.5 51.5t-52 29.5t-83.5 20q-65 13 -104.5 26.5t-67.5 43.5t-28 83q0 75 56.5 117t144.5 42q90 0 150 -47t74 -129h-79q-12 51 -50 76t-95 25q-55 0 -85.5 -20.5t-30.5 -56.5
q0 -28 19 -44t47 -24.5t79 -18.5q67 -13 109 -27.5t72 -47t30 -90.5q0 -78 -56 -123.5t-157 -45.5q-105 0 -171 50z" />
    <glyph glyph-name="t" unicode="t" horiz-adv-x="361" 
d="M148 30q-32 30 -32 109v339h-89v75h89v210h85v-210h124v-75h-124v-322q0 -29 4 -45.5t18 -26t44 -9.5h57v-75h-77q-67 0 -99 30z" />
    <glyph glyph-name="u" unicode="u" horiz-adv-x="578" 
d="M95 77q-17 33 -21.5 67.5t-4.5 75.5v333h85v-333q0 -88 32 -124q28 -31 85 -31q63 0 101 41q27 28 38.5 77t11.5 134v236h85v-553h-85v36q0 14 2.5 23.5t9.5 18.5l-14 9q-38 -52 -75 -74.5t-87 -22.5q-117 0 -163 87z" />
    <glyph glyph-name="v" unicode="v" horiz-adv-x="519" 
d="M20 553h94l116 -327q12 -35 17 -66.5t6 -39.5h12l3 21q8 51 20 85l118 327h93l-205 -553h-70z" />
    <glyph glyph-name="w" unicode="w" horiz-adv-x="820" 
d="M25 553h91l99 -355q5 -19 7 -36.5t3 -30t1 -18.5h13q0 5 1 23t4 32.5t8 29.5l119 355h77l119 -355q7 -21 9 -37.5t4 -47.5h13q0 6 1 24t3.5 32t6.5 29l100 355h91l-164 -553h-79l-123 375q-7 21 -9 36t-4 43h-12q-2 -28 -4 -43t-9 -36l-125 -375h-79z" />
    <glyph glyph-name="x" unicode="x" horiz-adv-x="550" 
d="M219 277l-199 276h101l119 -168q23 -33 27 -63h14q5 30 28 63l119 168h102l-202 -276l202 -277h-102l-119 168q-23 33 -28 63h-14q-4 -30 -27 -63l-119 -168h-101z" />
    <glyph glyph-name="y" unicode="y" horiz-adv-x="549" 
d="M71 -132h52q25 0 38 3.5t23 15.5t20 39l30 82l-216 545h94l146 -373q6 -15 9 -29.5t6 -30.5h13q4 33 14 60l136 373h92l-245 -664q-22 -59 -50 -79t-80 -20h-82v78z" />
    <glyph glyph-name="z" unicode="z" horiz-adv-x="533" 
d="M34 72l297 335q19 22 34.5 38t41.5 37l-6 12q-18 -9 -33.5 -12.5t-36.5 -3.5h-278v75h444v-80l-289 -326q-21 -25 -35.5 -40t-40.5 -36l6 -12q18 9 33.5 12.5t36.5 3.5h286v-75h-460v72z" />
    <glyph glyph-name="braceleft" unicode="{" horiz-adv-x="317" 
d="M132.5 -72q-30.5 38 -30.5 106v217q0 39 -17.5 59.5t-50.5 30.5v80q33 10 50.5 30.5t17.5 59.5v217q0 68 30.5 106t89.5 38h69v-70h-38q-64 0 -64 -77v-216q0 -54 -22.5 -83.5t-71.5 -36.5v-16q49 -7 71.5 -36.5t22.5 -83.5v-216q0 -77 64 -77h38v-70h-69q-59 0 -89.5 38
z" />
    <glyph glyph-name="bar" unicode="|" horiz-adv-x="329" 
d="M122 -110v982h85v-982h-85z" />
    <glyph glyph-name="braceright" unicode="}" horiz-adv-x="317" 
d="M26 -110v70h38q64 0 64 77v216q0 54 22.5 83.5t71.5 36.5v16q-49 7 -71.5 36.5t-22.5 83.5v216q0 77 -64 77h-38v70h69q59 0 89.5 -38t30.5 -106v-217q0 -39 17.5 -59.5t50.5 -30.5v-80q-33 -10 -50.5 -30.5t-17.5 -59.5v-217q0 -68 -30.5 -106t-89.5 -38h-69z" />
    <glyph glyph-name="asciitilde" unicode="~" horiz-adv-x="527" 
d="M251.5 226.5q-20.5 13.5 -42.5 37.5q-14 16 -24 23.5t-22 7.5q-37 0 -42 -78h-67q3 71 33 111t80 40q30 0 49 -13t41 -37q16 -17 26 -24.5t23 -7.5q16 0 26 19.5t12 57.5h69q-5 -76 -30.5 -113t-77.5 -37q-33 0 -53.5 13.5z" />
    <glyph glyph-name="uni00A0" unicode="&#xa0;" horiz-adv-x="240" 
 />
    <glyph glyph-name="exclamdown" unicode="&#xa1;" horiz-adv-x="331" 
d="M213.5 545.5q17.5 -17.5 17.5 -42.5q0 -24 -17.5 -41t-42.5 -17q-23 0 -40.5 17t-17.5 41q0 25 17 42.5t41 17.5q25 0 42.5 -17.5zM210 281q4 -116 4 -213v-278h-85v278q0 97 4 213q2 36 2 54h73q0 -18 2 -54z" />
    <glyph glyph-name="cent" unicode="&#xa2;" horiz-adv-x="605" 
d="M162.5 41q-54.5 39 -84.5 100.5t-30 137.5t30 137.5t84.5 99.5t124.5 45v94h60v-94q81 -12 137.5 -58t75.5 -116h-94q-15 39 -49 66q-7 5 -25 17.5t-34 31.5l-11 -9v-433l11 -9q16 20 34.5 33t26.5 19q37 28 51 75h94q-19 -79 -76.5 -128.5t-140.5 -57.5v-94h-60v94
q-70 10 -124.5 49zM287 60v434l-11 9q-18 -21 -46 -41l-17 -13q-36 -28 -56 -72t-20 -98q0 -57 21 -102.5t59 -74.5q7 -6 25 -19t34 -32z" />
    <glyph glyph-name="sterling" unicode="&#xa3;" horiz-adv-x="623" 
d="M169 141.5q39 36.5 39 87.5q0 34 -13.5 71.5t-38.5 83.5h-94v56h27q13 0 23 -1.5t25 -8.5l9 11q-26 49 -26 110q0 65 30 115.5t82.5 78.5t117.5 28q52 0 100 -21t81 -64t41 -107h-83q-11 57 -50 87t-87 30q-65 0 -106 -44t-41 -114q0 -33 3.5 -56t12.5 -44h221v-56h-120
q-23 0 -39.5 1.5t-38.5 8.5l-8 -12q26 -48 38 -85t12 -72q0 -47 -24 -81t-76 -65l5 -16q37 12 86 12h288v-75h-508v96q73 9 112 45.5z" />
    <glyph glyph-name="currency" unicode="&#xa4;" horiz-adv-x="731" 
d="M95 121l71 71q-52 69 -52 151t51 148l-69 70l50 50l70 -70q32 25 71 38t80 13q81 0 148 -49l68 68l53 -51l-70 -70q25 -32 38 -70t13 -78q0 -83 -51 -151l67 -68l-53 -49l-65 66q-67 -50 -149 -50q-83 0 -150 50l-68 -68zM434 175q33 13 58 38q53 53 53 127
q0 35 -14 68.5t-40 59.5t-58.5 39t-67.5 13t-68 -13.5t-59 -39.5q-25 -25 -37.5 -57.5t-12.5 -67.5q0 -37 13 -70t38 -58q26 -26 59 -39t68 -13t68 13z" />
    <glyph glyph-name="yen" unicode="&#xa5;" horiz-adv-x="674" 
d="M296 150h-176v75h176v41h-176v75h82q15 0 28 -1.5t36 -8.5l7 12q-32 29 -51 61l-218 359h107l187 -315q18 -30 24.5 -46t6.5 -38h16q0 23 7 39.5t24 45.5l188 314h105l-216 -359q-19 -32 -51 -61l7 -12q23 7 36 8.5t28 1.5h80v-75h-172v-41h172v-75h-172v-150h-85v150z
" />
    <glyph glyph-name="brokenbar" unicode="&#xa6;" horiz-adv-x="329" 
d="M122 447v425h85v-425h-85zM122 -110v421h85v-421h-85z" />
    <glyph glyph-name="section" unicode="&#xa7;" horiz-adv-x="698" 
d="M165.5 -184q-83.5 53 -102.5 157h94q20 -65 75 -99t127 -34q78 0 123.5 33.5t45.5 93.5q0 48 -27 76.5t-67 43t-106 28.5q-12 4 -29 7q-61 13 -105.5 32.5t-73.5 56.5t-29 97q0 41 19.5 72.5t64.5 53.5v21q-45 20 -64.5 50t-19.5 75q0 59 33.5 103t91 67t130.5 23
q98 0 165.5 -48t91.5 -139h-89q-21 53 -65.5 81t-107.5 28q-71 0 -112 -30t-41 -82q0 -42 26 -67t63.5 -37.5t101.5 -25.5q75 -16 124.5 -35t84.5 -61t35 -114q0 -41 -15.5 -72.5t-55.5 -55.5v-21q39 -20 55 -49.5t16 -73.5q0 -96 -68.5 -152t-192.5 -56q-113 0 -196.5 53z
M528 239q0 49 -27.5 77.5t-67.5 42t-109 28.5l-24 5q-25 5 -42 11q-33 -12 -51.5 -35.5t-18.5 -55.5q0 -42 25.5 -67t62.5 -37t101 -26q62 -12 110 -29q41 34 41 86z" />
    <glyph glyph-name="dieresis" unicode="&#xa8;" horiz-adv-x="358" 
d="M33 666.5q-19 18.5 -19 44.5t19 44t46 18t46 -18t19 -44t-19 -44.5t-46 -18.5t-46 18.5zM233 666.5q-19 18.5 -19 44.5t19 44t46 18t46 -18t19 -44t-19 -44.5t-46 -18.5t-46 18.5z" />
    <glyph glyph-name="copyright" unicode="&#xa9;" horiz-adv-x="903" 
d="M255 43.5q-90 52.5 -142.5 142t-52.5 196.5q0 106 52.5 195.5t142.5 142t196 52.5t196 -52t142.5 -141.5t52.5 -196.5t-52.5 -196.5t-142.5 -142t-196 -52.5t-196 52.5zM611 106.5q73 42.5 115.5 115.5t42.5 160t-42.5 159.5t-115.5 115t-160 42.5t-160 -42.5
t-115.5 -115t-42.5 -159.5t42.5 -160t115.5 -115.5t160 -42.5t160 42.5zM337.5 186q-51.5 30 -81.5 82t-30 114t30 114t81.5 82t113.5 30q47 0 90.5 -19t75.5 -53l-53 -51q-45 50 -113 50q-42 0 -77 -20.5t-55 -55.5t-20 -77t20 -77t55 -55.5t77 -20.5q68 0 113 50l53 -51
q-32 -34 -75.5 -53t-90.5 -19q-62 0 -113.5 30z" />
    <glyph glyph-name="ordfeminine" unicode="&#xaa;" horiz-adv-x="437" 
d="M82 401.5q-34 29.5 -34 80.5q0 50 37 80q29 23 89 36l138 27q2 45 -24 69q-25 27 -71 27q-36 0 -62 -19.5t-33 -51.5h-60q10 58 54 90.5t102 32.5q35 0 64 -10t49 -30q27 -25 34 -58t7 -68v-228h-60v18q0 18 7 40l-10 4q-18 -28 -44 -47q-34 -22 -91 -22q-58 0 -92 29.5z
M242 438q33 16 51 47q11 19 15 38t5 25q3 10 6 15t10 6l-2 11l-90 -19l-50 -10q-43 -7 -64 -27q-16 -18 -16 -41q0 -26 20 -42t54 -16q36 0 61 13z" />
    <glyph glyph-name="guillemotleft" unicode="&#xab;" horiz-adv-x="572" 
d="M21 276l217 186v-75l-79 -68q-27 -23 -63 -36v-14q34 -12 63 -37l79 -67v-75zM287 276l217 186v-75l-79 -68q-27 -23 -63 -36v-14q34 -12 63 -37l79 -67v-75z" />
    <glyph glyph-name="uni00AD" unicode="&#xad;" horiz-adv-x="373" 
d="M0 302v64h373v-64h-373z" />
    <glyph glyph-name="registered" unicode="&#xae;" horiz-adv-x="495" 
d="M144.5 394q-46.5 27 -73.5 73.5t-27 102.5t27 102.5t73.5 73.5t102.5 27t102.5 -27t73.5 -73.5t27 -102.5t-27 -102.5t-73.5 -73.5t-102.5 -27t-102.5 27zM333.5 421q39.5 23 62.5 62.5t23 86.5t-23 86.5t-62.5 62.5t-86.5 23t-86.5 -23t-62.5 -62.5t-23 -86.5t23 -86.5
t62.5 -62.5t86.5 -23t86.5 23zM168 687h97q34 0 54.5 -17t20.5 -51q0 -29 -15 -47q-4 -5 -12.5 -9t-15.5 -3l-1 -4q8 -5 10.5 -11.5t2.5 -7.5l36 -86h-42l-39 97h-57v-97h-39v236zM290 591q11 9 11 26t-11 26.5t-30 9.5h-53v-71h53q19 0 30 9z" />
    <glyph glyph-name="macron" unicode="&#xaf;" horiz-adv-x="324" 
d="M14 660v43h296v-43h-296z" />
    <glyph glyph-name="degree" unicode="&#xb0;" horiz-adv-x="478" 
d="M161 482q-36 21 -57.5 57t-21.5 78t21 78t57 57t78 21t78.5 -21t57.5 -56.5t21 -78.5q0 -42 -21.5 -78t-57.5 -57t-78 -21q-41 0 -77 21zM301.5 554q26.5 26 26.5 63t-26 63t-64 26q-37 0 -63 -26t-26 -63t26 -63t63 -26t63.5 26z" />
    <glyph glyph-name="plusminus" unicode="&#xb1;" horiz-adv-x="695" 
d="M312 158v162h-242v71h242v162h71v-162h242v-71h-242v-162h-71zM70 0v71h555v-71h-555z" />
    <glyph glyph-name="acute" unicode="&#xb4;" horiz-adv-x="249" 
d="M14 611l117 152h104l-143 -152h-78z" />
    <glyph glyph-name="paragraph" unicode="&#xb6;" horiz-adv-x="629" 
d="M173 365.5q-56 26.5 -89.5 74t-33.5 110.5q0 65 34 113.5t90 74t120 25.5h86v-873h-86v445q-65 4 -121 30.5zM464 -110v873h86v-873h-86z" />
    <glyph glyph-name="periodcentered" unicode="&#xb7;" horiz-adv-x="327" 
d="M110 344.5q-21 21.5 -21 51.5q0 31 21.5 52.5t51.5 21.5q31 0 53 -21.5t22 -52.5q0 -30 -22 -51.5t-53 -21.5t-52 21.5z" />
    <glyph glyph-name="cedilla" unicode="&#xb8;" horiz-adv-x="243" 
d="M14 -207v37q48 -18 88 -18q34 0 54 13.5t20 38.5q0 35 -37 48.5t-109 11.5l70 90h54q-4 -4 -20 -23t-47 -41l7 -9q24 3 38 3q23 0 38 -6q59 -19 59 -72q0 -41 -34 -63.5t-89 -22.5q-47 0 -92 13z" />
    <glyph glyph-name="ordmasculine" unicode="&#xba;" horiz-adv-x="476" 
d="M139 398q-43 26 -67 72t-24 104q0 57 24 102.5t67 71t98 25.5q54 0 97.5 -25.5t68 -71t24.5 -102.5q0 -58 -24 -104t-67.5 -72t-98.5 -26t-98 26zM330 467.5q37 42.5 37 106.5q0 63 -37 105t-93 42t-93 -42t-37 -105q0 -65 37 -107t93 -42t93 42.5z" />
    <glyph glyph-name="guillemotright" unicode="&#xbb;" horiz-adv-x="572" 
d="M68 165l79 67q29 25 63 37v14q-36 13 -63 36l-79 68v75l217 -186l-217 -186v75zM334 165l79 67q29 25 63 37v14q-36 13 -63 36l-79 68v75l217 -186l-217 -186v75z" />
    <glyph glyph-name="questiondown" unicode="&#xbf;" horiz-adv-x="529" 
d="M307.5 545.5q17.5 -17.5 17.5 -42.5q0 -23 -17.5 -40.5t-41.5 -17.5t-41.5 17t-17.5 41q0 25 17.5 42.5t41.5 17.5t41.5 -17.5zM289.5 212.5q-15.5 -38.5 -37 -60.5t-56.5 -48q-28 -20 -43.5 -35t-26 -37t-10.5 -53q0 -60 38.5 -92t105.5 -32q71 0 111 38t45 105h78
q-6 -101 -68.5 -159t-160.5 -58q-99 0 -163 53t-64 149q0 42 12.5 71.5t31 48.5t49.5 42q31 24 49.5 43t31.5 48.5t13 72.5v28h80v-28q0 -58 -15.5 -96.5z" />
    <glyph glyph-name="Agrave" unicode="&#xc0;" horiz-adv-x="694" 
d="M14 0l281 763h104l281 -763h-93l-67 187h-346l-67 -187h-93zM489 269l-116 327q-9 26 -13.5 43t-4.5 38h-16q0 -21 -4.5 -38t-13.5 -43l-116 -327h284zM393 821h-78l-143 152h104z" />
    <glyph glyph-name="Aacute" unicode="&#xc1;" horiz-adv-x="694" 
d="M14 0l281 763h104l281 -763h-93l-67 187h-346l-67 -187h-93zM489 269l-116 327q-9 26 -13.5 43t-4.5 38h-16q0 -21 -4.5 -38t-13.5 -43l-116 -327h284zM301 821l117 152h104l-143 -152h-78z" />
    <glyph glyph-name="Acircumflex" unicode="&#xc2;" horiz-adv-x="694" 
d="M14 0l281 763h104l281 -763h-93l-67 187h-346l-67 -187h-93zM489 269l-116 327q-9 26 -13.5 43t-4.5 38h-16q0 -21 -4.5 -38t-13.5 -43l-116 -327h284zM340 998h14l162 -170h-98l-35 43q-14 18 -21.5 31.5t-7.5 25.5h-14q0 -12 -7.5 -25.5t-21.5 -31.5l-35 -43h-98z" />
    <glyph glyph-name="Atilde" unicode="&#xc3;" horiz-adv-x="694" 
d="M14 0l281 763h104l281 -763h-93l-67 187h-346l-67 -187h-93zM489 269l-116 327q-9 26 -13.5 43t-4.5 38h-16q0 -21 -4.5 -38t-13.5 -43l-116 -327h284zM363.5 836.5q-20.5 13.5 -42.5 37.5q-14 16 -24 23.5t-22 7.5q-37 0 -42 -78h-67q3 71 33 111t80 40q30 0 49 -13
t41 -37q16 -17 26 -24.5t23 -7.5q16 0 26 19.5t12 57.5h69q-5 -76 -30.5 -113t-77.5 -37q-33 0 -53.5 13.5z" />
    <glyph glyph-name="Adieresis" unicode="&#xc4;" horiz-adv-x="694" 
d="M14 0l281 763h104l281 -763h-93l-67 187h-346l-67 -187h-93zM489 269l-116 327q-9 26 -13.5 43t-4.5 38h-16q0 -21 -4.5 -38t-13.5 -43l-116 -327h284zM205.5 827.5q-17.5 16.5 -17.5 40.5t17.5 41t41.5 17q23 0 40.5 -17t17.5 -41q0 -23 -17.5 -40t-40.5 -17
q-24 0 -41.5 16.5zM405.5 827.5q-17.5 16.5 -17.5 40.5t17.5 41t41.5 17q23 0 40.5 -17t17.5 -41q0 -23 -17.5 -40t-40.5 -17q-24 0 -41.5 16.5z" />
    <glyph glyph-name="Aring" unicode="&#xc5;" horiz-adv-x="694" 
d="M241.5 765q-13.5 26 -13.5 56q0 49 34.5 83.5t83.5 34.5t84.5 -34t35.5 -84q0 -30 -13.5 -56t-38.5 -42l266 -723h-93l-67 187h-346l-67 -187h-93l266 723q-25 16 -38.5 42zM388 780.5q16 16.5 16 42.5q0 23 -15.5 39t-41.5 16q-24 0 -40 -16t-16 -39q0 -25 16.5 -42
t39.5 -17q25 0 41 16.5zM489 269l-116 329q-9 26 -13.5 43t-4.5 38h-16q0 -21 -4.5 -38t-13.5 -43l-116 -329h284z" />
    <glyph glyph-name="AE" unicode="&#xc6;" horiz-adv-x="1072" 
d="M14 0l281 763h482l31 -83h-377l94 -256h377l29 -82h-376l95 -259h377l31 -83h-475l-63 187h-346l-67 -187h-93zM489 269l-116 329q-9 26 -13.5 43t-4.5 38h-16q0 -21 -4.5 -38t-13.5 -43l-116 -329h284z" />
    <glyph glyph-name="Ccedilla" unicode="&#xc7;" horiz-adv-x="748" 
d="M538.5 112.5q54.5 40.5 68.5 118.5h100q-18 -112 -98.5 -176.5t-206.5 -64.5h-16q-19 -21 -46 -40l7 -9q24 3 38 3q23 0 38 -6q59 -19 59 -72q0 -41 -34 -63.5t-89 -22.5q-46 0 -92 13v37q48 -18 88 -18q34 0 54 13.5t20 38.5q0 35 -37 48.5t-109 11.5l55 71
q-95 14 -160 69.5t-96.5 138t-31.5 179.5q0 107 39 196t118 142t195 53q83 0 148 -28t105 -78t52 -115h-100q-14 64 -69.5 101.5t-137.5 37.5q-83 0 -141 -39.5t-87.5 -109.5t-29.5 -160q0 -91 29.5 -161t87.5 -109.5t141 -39.5q84 0 138.5 40.5z" />
    <glyph glyph-name="Egrave" unicode="&#xc8;" horiz-adv-x="616" 
d="M79 0v763h493v-83h-401v-256h354v-82h-354v-259h401v-83h-493zM372 821h-78l-143 152h104z" />
    <glyph glyph-name="Eacute" unicode="&#xc9;" horiz-adv-x="616" 
d="M79 0v763h493v-83h-401v-256h354v-82h-354v-259h401v-83h-493zM280 821l117 152h104l-143 -152h-78z" />
    <glyph glyph-name="Ecircumflex" unicode="&#xca;" horiz-adv-x="616" 
d="M79 0v763h493v-83h-401v-256h354v-82h-354v-259h401v-83h-493zM319 998h14l162 -170h-98l-35 43q-14 18 -21.5 31.5t-7.5 25.5h-14q0 -12 -7.5 -25.5t-21.5 -31.5l-35 -43h-98z" />
    <glyph glyph-name="Edieresis" unicode="&#xcb;" horiz-adv-x="616" 
d="M79 0v763h493v-83h-401v-256h354v-82h-354v-259h401v-83h-493zM184.5 827.5q-17.5 16.5 -17.5 40.5t17.5 41t41.5 17q23 0 40.5 -17t17.5 -41q0 -23 -17.5 -40t-40.5 -17q-24 0 -41.5 16.5zM384.5 827.5q-17.5 16.5 -17.5 40.5t17.5 41t41.5 17q23 0 40.5 -17t17.5 -41
q0 -23 -17.5 -40t-40.5 -17q-24 0 -41.5 16.5z" />
    <glyph glyph-name="Igrave" unicode="&#xcc;" horiz-adv-x="251" 
d="M79 0v763h92v-763h-92zM171 821h-78l-143 152h104z" />
    <glyph glyph-name="Iacute" unicode="&#xcd;" horiz-adv-x="251" 
d="M79 0v763h92v-763h-92zM79 821l117 152h104l-143 -152h-78z" />
    <glyph glyph-name="Icircumflex" unicode="&#xce;" horiz-adv-x="251" 
d="M79 0v763h92v-763h-92zM118 998h14l162 -170h-98l-35 43q-14 18 -21.5 31.5t-7.5 25.5h-14q0 -12 -7.5 -25.5t-21.5 -31.5l-35 -43h-98z" />
    <glyph glyph-name="Idieresis" unicode="&#xcf;" horiz-adv-x="251" 
d="M79 0v763h92v-763h-92zM-16.5 827.5q-17.5 16.5 -17.5 40.5t17.5 41t41.5 17q23 0 40.5 -17t17.5 -41q0 -23 -17.5 -40t-40.5 -17q-24 0 -41.5 16.5zM183.5 827.5q-17.5 16.5 -17.5 40.5t17.5 41t41.5 17q23 0 40.5 -17t17.5 -41q0 -23 -17.5 -40t-40.5 -17
q-24 0 -41.5 16.5z" />
    <glyph glyph-name="Eth" unicode="&#xd0;" horiz-adv-x="732" 
d="M580 663q101 -100 101 -284q0 -181 -101.5 -280t-291.5 -99h-209v346h-72v71h72v346h210q190 0 291 -100zM507 148q82 65 82 231q0 301 -301 301h-117v-263h245v-71h-245v-263h116q138 0 220 65z" />
    <glyph glyph-name="Ntilde" unicode="&#xd1;" horiz-adv-x="727" 
d="M79 763h134l293 -574q24 -46 38 -95l16 3q-4 44 -4 91v575h91v-763h-134l-293 574q-13 26 -21 45t-16 48l-16 -3q4 -44 4 -92v-572h-92v763zM379.5 836.5q-20.5 13.5 -42.5 37.5q-14 16 -24 23.5t-22 7.5q-37 0 -42 -78h-67q3 71 33 111t80 40q30 0 49 -13t41 -37
q16 -17 26 -24.5t23 -7.5q16 0 26 19.5t12 57.5h69q-5 -76 -30.5 -113t-77.5 -37q-33 0 -53.5 13.5z" />
    <glyph glyph-name="Ograve" unicode="&#xd2;" horiz-adv-x="811" 
d="M209 43q-80 53 -119.5 142.5t-39.5 196.5t39.5 196t119.5 142t195 53q116 0 196.5 -53t120 -141.5t39.5 -196.5t-39.5 -197t-120 -142t-196.5 -53q-115 0 -195 53zM547.5 112.5q59.5 39.5 90 109.5t30.5 160t-30.5 159.5t-90 109t-143.5 39.5q-83 0 -142 -39.5
t-89.5 -109t-30.5 -159.5t30.5 -160t89.5 -109.5t142 -39.5q84 0 143.5 39.5zM451 821h-78l-143 152h104z" />
    <glyph glyph-name="Oacute" unicode="&#xd3;" horiz-adv-x="811" 
d="M209 43q-80 53 -119.5 142.5t-39.5 196.5t39.5 196t119.5 142t195 53q116 0 196.5 -53t120 -141.5t39.5 -196.5t-39.5 -197t-120 -142t-196.5 -53q-115 0 -195 53zM547.5 112.5q59.5 39.5 90 109.5t30.5 160t-30.5 159.5t-90 109t-143.5 39.5q-83 0 -142 -39.5
t-89.5 -109t-30.5 -159.5t30.5 -160t89.5 -109.5t142 -39.5q84 0 143.5 39.5zM359 821l117 152h104l-143 -152h-78z" />
    <glyph glyph-name="Ocircumflex" unicode="&#xd4;" horiz-adv-x="811" 
d="M209 43q-80 53 -119.5 142.5t-39.5 196.5t39.5 196t119.5 142t195 53q116 0 196.5 -53t120 -141.5t39.5 -196.5t-39.5 -197t-120 -142t-196.5 -53q-115 0 -195 53zM547.5 112.5q59.5 39.5 90 109.5t30.5 160t-30.5 159.5t-90 109t-143.5 39.5q-83 0 -142 -39.5
t-89.5 -109t-30.5 -159.5t30.5 -160t89.5 -109.5t142 -39.5q84 0 143.5 39.5zM398 998h14l162 -170h-98l-35 43q-14 18 -21.5 31.5t-7.5 25.5h-14q0 -12 -7.5 -25.5t-21.5 -31.5l-35 -43h-98z" />
    <glyph glyph-name="Otilde" unicode="&#xd5;" horiz-adv-x="811" 
d="M209 43q-80 53 -119.5 142.5t-39.5 196.5t39.5 196t119.5 142t195 53q116 0 196.5 -53t120 -141.5t39.5 -196.5t-39.5 -197t-120 -142t-196.5 -53q-115 0 -195 53zM547.5 112.5q59.5 39.5 90 109.5t30.5 160t-30.5 159.5t-90 109t-143.5 39.5q-83 0 -142 -39.5
t-89.5 -109t-30.5 -159.5t30.5 -160t89.5 -109.5t142 -39.5q84 0 143.5 39.5zM421.5 836.5q-20.5 13.5 -42.5 37.5q-14 16 -24 23.5t-22 7.5q-37 0 -42 -78h-67q3 71 33 111t80 40q30 0 49 -13t41 -37q16 -17 26 -24.5t23 -7.5q16 0 26 19.5t12 57.5h69q-5 -76 -30.5 -113
t-77.5 -37q-33 0 -53.5 13.5z" />
    <glyph glyph-name="Odieresis" unicode="&#xd6;" horiz-adv-x="811" 
d="M209 43q-80 53 -119.5 142.5t-39.5 196.5t39.5 196t119.5 142t195 53q116 0 196.5 -53t120 -141.5t39.5 -196.5t-39.5 -197t-120 -142t-196.5 -53q-115 0 -195 53zM547.5 112.5q59.5 39.5 90 109.5t30.5 160t-30.5 159.5t-90 109t-143.5 39.5q-83 0 -142 -39.5
t-89.5 -109t-30.5 -159.5t30.5 -160t89.5 -109.5t142 -39.5q84 0 143.5 39.5zM263.5 827.5q-17.5 16.5 -17.5 40.5t17.5 41t41.5 17q23 0 40.5 -17t17.5 -41q0 -23 -17.5 -40t-40.5 -17q-24 0 -41.5 16.5zM463.5 827.5q-17.5 16.5 -17.5 40.5t17.5 41t41.5 17q23 0 40.5 -17
t17.5 -41q0 -23 -17.5 -40t-40.5 -17q-24 0 -41.5 16.5z" />
    <glyph glyph-name="multiply" unicode="&#xd7;" horiz-adv-x="567" 
d="M112 116l-50 50l171 172l-171 171l50 50l172 -171l171 171l50 -50l-171 -171l171 -172l-50 -50l-171 171z" />
    <glyph glyph-name="Oslash" unicode="&#xd8;" horiz-adv-x="811" 
d="M743.5 513.5q16.5 -62.5 16.5 -131.5q0 -108 -39.5 -197t-120 -142t-196.5 -53q-79 0 -141.5 25.5t-107.5 71.5l-59 -59l-45 45l65 65q-33 50 -49.5 113t-16.5 131q0 107 39.5 196t119.5 142t195 53q156 0 250 -97l60 60l45 -46l-64 -64q32 -50 48.5 -112.5zM181 203
l410 410q-69 77 -187 77q-83 0 -142 -39.5t-89.5 -109t-30.5 -159.5q0 -104 39 -179zM547.5 112.5q59.5 39.5 90 109.5t30.5 160q0 105 -39 178l-411 -410q69 -77 186 -77q84 0 143.5 39.5z" />
    <glyph glyph-name="Ugrave" unicode="&#xd9;" horiz-adv-x="711" 
d="M143 62q-71 72 -71 202v499h92v-499q0 -92 47 -142t144 -50t144 50t47 142v499h92v-499q0 -130 -71 -202t-212 -72t-212 72zM401 821h-78l-143 152h104z" />
    <glyph glyph-name="Uacute" unicode="&#xda;" horiz-adv-x="711" 
d="M143 62q-71 72 -71 202v499h92v-499q0 -92 47 -142t144 -50t144 50t47 142v499h92v-499q0 -130 -71 -202t-212 -72t-212 72zM309 821l117 152h104l-143 -152h-78z" />
    <glyph glyph-name="Ucircumflex" unicode="&#xdb;" horiz-adv-x="711" 
d="M143 62q-71 72 -71 202v499h92v-499q0 -92 47 -142t144 -50t144 50t47 142v499h92v-499q0 -130 -71 -202t-212 -72t-212 72zM348 998h14l162 -170h-98l-35 43q-14 18 -21.5 31.5t-7.5 25.5h-14q0 -12 -7.5 -25.5t-21.5 -31.5l-35 -43h-98z" />
    <glyph glyph-name="Udieresis" unicode="&#xdc;" horiz-adv-x="711" 
d="M143 62q-71 72 -71 202v499h92v-499q0 -92 47 -142t144 -50t144 50t47 142v499h92v-499q0 -130 -71 -202t-212 -72t-212 72zM213.5 827.5q-17.5 16.5 -17.5 40.5t17.5 41t41.5 17q23 0 40.5 -17t17.5 -41q0 -23 -17.5 -40t-40.5 -17q-24 0 -41.5 16.5zM413.5 827.5
q-17.5 16.5 -17.5 40.5t17.5 41t41.5 17q23 0 40.5 -17t17.5 -41q0 -23 -17.5 -40t-40.5 -17q-24 0 -41.5 16.5z" />
    <glyph glyph-name="Yacute" unicode="&#xdd;" horiz-adv-x="674" 
d="M290 292l-286 471h107l187 -315q19 -32 25 -46t6 -38h16q0 24 6.5 39.5t24.5 45.5l188 314h105l-283 -471v-292h-96v292zM291 821l117 152h104l-143 -152h-78z" />
    <glyph glyph-name="Thorn" unicode="&#xde;" horiz-adv-x="641" 
d="M79 763h91v-108h192q113 0 178 -55t65 -160q0 -103 -65.5 -161t-177.5 -58h-192v-221h-91v763zM472 336.5q42 34.5 42 100.5q0 64 -42.5 99.5t-119.5 35.5h-182v-270h182q78 0 120 34.5z" />
    <glyph glyph-name="germandbls" unicode="&#xdf;" horiz-adv-x="674" 
d="M149 700q69 73 199 73q76 0 133 -25.5t87.5 -69t30.5 -96.5q0 -72 -36 -120q-12 -15 -27.5 -25.5t-44.5 -18.5v-11q30 -5 47 -11.5t30 -16.5q69 -51 69 -165q0 -118 -78.5 -166t-181.5 -48h-81v75h72q85 0 134.5 36.5t49.5 107.5q0 72 -43 108.5t-119 36.5h-94v75h78
q67 0 103.5 34t36.5 95q0 58 -45.5 94t-120.5 36q-84 0 -133.5 -50.5t-49.5 -154.5v-493h-85v493q0 134 69 207z" />
    <glyph glyph-name="agrave" unicode="&#xe0;" horiz-adv-x="576" 
d="M96.5 32q-48.5 42 -48.5 115q0 72 54 114q44 35 127 52l197 38q1 64 -34 99q-38 38 -102 38q-51 0 -88.5 -27.5t-47.5 -73.5h-85q14 83 76.5 129.5t145.5 46.5q49 0 91 -14.5t71 -42.5q38 -36 48 -83t10 -97v-326h-85v26q0 25 10 57l-14 6q-27 -43 -63 -67
q-25 -17 -56.5 -24.5t-74.5 -7.5q-83 0 -131.5 42zM326 84q49 25 72 67q17 30 22.5 57t6.5 33q3 15 8 22t15 8l-3 16l-129 -27l-71 -14q-62 -12 -91 -39q-23 -23 -23 -58q0 -38 28.5 -61t76.5 -23t88 19zM341 611h-78l-143 152h104z" />
    <glyph glyph-name="aacute" unicode="&#xe1;" horiz-adv-x="576" 
d="M96.5 32q-48.5 42 -48.5 115q0 72 54 114q44 35 127 52l197 38q1 64 -34 99q-38 38 -102 38q-51 0 -88.5 -27.5t-47.5 -73.5h-85q14 83 76.5 129.5t145.5 46.5q49 0 91 -14.5t71 -42.5q38 -36 48 -83t10 -97v-326h-85v26q0 25 10 57l-14 6q-27 -43 -63 -67
q-25 -17 -56.5 -24.5t-74.5 -7.5q-83 0 -131.5 42zM326 84q49 25 72 67q17 30 22.5 57t6.5 33q3 15 8 22t15 8l-3 16l-129 -27l-71 -14q-62 -12 -91 -39q-23 -23 -23 -58q0 -38 28.5 -61t76.5 -23t88 19zM249 611l117 152h104l-143 -152h-78z" />
    <glyph glyph-name="acircumflex" unicode="&#xe2;" horiz-adv-x="576" 
d="M96.5 32q-48.5 42 -48.5 115q0 72 54 114q44 35 127 52l197 38q1 64 -34 99q-38 38 -102 38q-51 0 -88.5 -27.5t-47.5 -73.5h-85q14 83 76.5 129.5t145.5 46.5q49 0 91 -14.5t71 -42.5q38 -36 48 -83t10 -97v-326h-85v26q0 25 10 57l-14 6q-27 -43 -63 -67
q-25 -17 -56.5 -24.5t-74.5 -7.5q-83 0 -131.5 42zM326 84q49 25 72 67q17 30 22.5 57t6.5 33q3 15 8 22t15 8l-3 16l-129 -27l-71 -14q-62 -12 -91 -39q-23 -23 -23 -58q0 -38 28.5 -61t76.5 -23t88 19zM288 788h14l162 -170h-98l-35 43q-14 18 -21.5 31.5t-7.5 25.5h-14
q0 -12 -7.5 -25.5t-21.5 -31.5l-35 -43h-98z" />
    <glyph glyph-name="atilde" unicode="&#xe3;" horiz-adv-x="576" 
d="M96.5 32q-48.5 42 -48.5 115q0 72 54 114q44 35 127 52l197 38q1 64 -34 99q-38 38 -102 38q-51 0 -88.5 -27.5t-47.5 -73.5h-85q14 83 76.5 129.5t145.5 46.5q49 0 91 -14.5t71 -42.5q38 -36 48 -83t10 -97v-326h-85v26q0 25 10 57l-14 6q-27 -43 -63 -67
q-25 -17 -56.5 -24.5t-74.5 -7.5q-83 0 -131.5 42zM326 84q49 25 72 67q17 30 22.5 57t6.5 33q3 15 8 22t15 8l-3 16l-129 -27l-71 -14q-62 -12 -91 -39q-23 -23 -23 -58q0 -38 28.5 -61t76.5 -23t88 19zM311.5 626.5q-20.5 13.5 -42.5 37.5q-14 16 -24 23.5t-22 7.5
q-37 0 -42 -78h-67q3 71 33 111t80 40q30 0 49 -13t41 -37q16 -17 26 -24.5t23 -7.5q16 0 26 19.5t12 57.5h69q-5 -76 -30.5 -113t-77.5 -37q-33 0 -53.5 13.5z" />
    <glyph glyph-name="adieresis" unicode="&#xe4;" horiz-adv-x="576" 
d="M96.5 32q-48.5 42 -48.5 115q0 72 54 114q44 35 127 52l197 38q1 64 -34 99q-38 38 -102 38q-51 0 -88.5 -27.5t-47.5 -73.5h-85q14 83 76.5 129.5t145.5 46.5q49 0 91 -14.5t71 -42.5q38 -36 48 -83t10 -97v-326h-85v26q0 25 10 57l-14 6q-27 -43 -63 -67
q-25 -17 -56.5 -24.5t-74.5 -7.5q-83 0 -131.5 42zM326 84q49 25 72 67q17 30 22.5 57t6.5 33q3 15 8 22t15 8l-3 16l-129 -27l-71 -14q-62 -12 -91 -39q-23 -23 -23 -58q0 -38 28.5 -61t76.5 -23t88 19zM149 666.5q-19 18.5 -19 44.5t19 44t46 18t46 -18t19 -44t-19 -44.5
t-46 -18.5t-46 18.5zM349 666.5q-19 18.5 -19 44.5t19 44t46 18t46 -18t19 -44t-19 -44.5t-46 -18.5t-46 18.5z" />
    <glyph glyph-name="aring" unicode="&#xe5;" horiz-adv-x="576" 
d="M96.5 32q-48.5 42 -48.5 115q0 72 54 114q44 35 127 52l197 38q1 64 -34 99q-38 38 -102 38q-51 0 -88.5 -27.5t-47.5 -73.5h-85q14 83 76.5 129.5t145.5 46.5q49 0 91 -14.5t71 -42.5q38 -36 48 -83t10 -97v-326h-85v26q0 25 10 57l-14 6q-27 -43 -63 -67
q-25 -17 -56.5 -24.5t-74.5 -7.5q-83 0 -131.5 42zM326 84q49 25 72 67q17 30 22.5 57t6.5 33q3 15 8 22t15 8l-3 16l-129 -27l-71 -14q-62 -12 -91 -39q-23 -23 -23 -58q0 -38 28.5 -61t76.5 -23t88 19zM210.5 616.5q-34.5 35.5 -34.5 83.5q0 49 34.5 83.5t83.5 34.5
t84.5 -34t35.5 -84q0 -49 -35 -84t-85 -35q-49 0 -83.5 35.5zM335 659.5q16 16.5 16 42.5q0 23 -15.5 39t-41.5 16q-24 0 -40 -16t-16 -39q0 -25 16.5 -42t39.5 -17q25 0 41 16.5z" />
    <glyph glyph-name="ae" unicode="&#xe6;" horiz-adv-x="1205" 
d="M96.5 32q-48.5 42 -48.5 115q0 72 54 114q44 35 127 52l197 38q1 64 -34 99q-38 38 -102 38q-51 0 -88.5 -27.5t-47.5 -73.5h-85q14 83 76.5 129.5t145.5 46.5q49 0 91 -14.5t71 -42.5q38 -36 48 -83t10 -97v-326h-85v26q0 25 10 57l-14 6q-27 -43 -63 -67
q-25 -17 -56.5 -24.5t-74.5 -7.5q-83 0 -131.5 42zM326 84q49 25 72 67q17 30 22.5 57t6.5 33q3 15 8 22t15 8l-3 16l-129 -27l-71 -14q-62 -12 -91 -39q-23 -23 -23 -58q0 -38 28.5 -61t76.5 -23t88 19zM753.5 27q-61.5 37 -95.5 102t-34 146q0 77 32 142.5t92.5 105.5
t142.5 40q71 0 132 -32t98 -93.5t37 -147.5v-30h-395h-27.5t-37.5 2l-3 -16q9 -2 12.5 -6.5t6 -15t5.5 -19.5q21 -64 67.5 -102t105.5 -38q60 0 103 32t62 81h91q-27 -84 -92 -136t-163 -52q-78 0 -139.5 37zM737.5 330.5q11.5 4.5 28.5 4.5h248q19 0 32 -4.5t25 -14.5
l11 12q-10 7 -12.5 12.5t-4.5 14.5q-3 18 -10 34q-21 47 -64.5 73t-97.5 26q-55 0 -96.5 -26t-64.5 -73q-9 -19 -11 -34q-1 -9 -4 -14t-13 -13l11 -12q11 10 22.5 14.5z" />
    <glyph glyph-name="ccedilla" unicode="&#xe7;" horiz-adv-x="602" 
d="M270 -50l7 -9q24 3 38 3q23 0 38 -6q59 -19 59 -72q0 -41 -34 -63.5t-89 -22.5q-47 0 -92 13v37q48 -18 88 -18q34 0 54 13.5t20 38.5q0 35 -37 48.5t-109 11.5l54 70q-65 11 -114.5 50t-77 100t-27.5 135q0 81 34 146t95 101.5t139 36.5q93 0 157.5 -47.5t83.5 -128.5
h-91q-16 46 -56.5 73.5t-93.5 27.5q-52 0 -93.5 -27t-65.5 -74.5t-24 -107.5q0 -62 23.5 -110.5t65.5 -76t94 -27.5q57 0 98.5 31t55.5 82h91q-18 -88 -84.5 -138t-160.5 -50q-19 -21 -46 -40z" />
    <glyph glyph-name="egrave" unicode="&#xe8;" horiz-adv-x="629" 
d="M177.5 27q-61.5 37 -95.5 102t-34 146q0 77 32 142.5t92.5 105.5t142.5 40q71 0 132 -32t98 -93.5t37 -147.5v-30h-395h-27.5t-37.5 2l-3 -16q9 -2 12.5 -6.5t6 -15t5.5 -19.5q21 -64 67.5 -102t105.5 -38q60 0 103 32t62 81h91q-27 -84 -92 -136t-163 -52
q-78 0 -139.5 37zM161.5 330.5q11.5 4.5 28.5 4.5h248q19 0 32 -4.5t25 -14.5l11 12q-10 7 -12.5 12.5t-4.5 14.5q-3 18 -10 34q-21 47 -64.5 73t-97.5 26q-55 0 -96.5 -26t-64.5 -73q-9 -19 -11 -34q-1 -9 -4 -14t-13 -13l11 -12q11 10 22.5 14.5zM360 611h-78l-143 152
h104z" />
    <glyph glyph-name="eacute" unicode="&#xe9;" horiz-adv-x="629" 
d="M177.5 27q-61.5 37 -95.5 102t-34 146q0 77 32 142.5t92.5 105.5t142.5 40q71 0 132 -32t98 -93.5t37 -147.5v-30h-395h-27.5t-37.5 2l-3 -16q9 -2 12.5 -6.5t6 -15t5.5 -19.5q21 -64 67.5 -102t105.5 -38q60 0 103 32t62 81h91q-27 -84 -92 -136t-163 -52
q-78 0 -139.5 37zM161.5 330.5q11.5 4.5 28.5 4.5h248q19 0 32 -4.5t25 -14.5l11 12q-10 7 -12.5 12.5t-4.5 14.5q-3 18 -10 34q-21 47 -64.5 73t-97.5 26q-55 0 -96.5 -26t-64.5 -73q-9 -19 -11 -34q-1 -9 -4 -14t-13 -13l11 -12q11 10 22.5 14.5zM268 611l117 152h104
l-143 -152h-78z" />
    <glyph glyph-name="ecircumflex" unicode="&#xea;" horiz-adv-x="629" 
d="M177.5 27q-61.5 37 -95.5 102t-34 146q0 77 32 142.5t92.5 105.5t142.5 40q71 0 132 -32t98 -93.5t37 -147.5v-30h-395h-27.5t-37.5 2l-3 -16q9 -2 12.5 -6.5t6 -15t5.5 -19.5q21 -64 67.5 -102t105.5 -38q60 0 103 32t62 81h91q-27 -84 -92 -136t-163 -52
q-78 0 -139.5 37zM161.5 330.5q11.5 4.5 28.5 4.5h248q19 0 32 -4.5t25 -14.5l11 12q-10 7 -12.5 12.5t-4.5 14.5q-3 18 -10 34q-21 47 -64.5 73t-97.5 26q-55 0 -96.5 -26t-64.5 -73q-9 -19 -11 -34q-1 -9 -4 -14t-13 -13l11 -12q11 10 22.5 14.5zM307 788h14l162 -170h-98
l-35 43q-14 18 -21.5 31.5t-7.5 25.5h-14q0 -12 -7.5 -25.5t-21.5 -31.5l-35 -43h-98z" />
    <glyph glyph-name="edieresis" unicode="&#xeb;" horiz-adv-x="629" 
d="M177.5 27q-61.5 37 -95.5 102t-34 146q0 77 32 142.5t92.5 105.5t142.5 40q71 0 132 -32t98 -93.5t37 -147.5v-30h-395h-27.5t-37.5 2l-3 -16q9 -2 12.5 -6.5t6 -15t5.5 -19.5q21 -64 67.5 -102t105.5 -38q60 0 103 32t62 81h91q-27 -84 -92 -136t-163 -52
q-78 0 -139.5 37zM161.5 330.5q11.5 4.5 28.5 4.5h248q19 0 32 -4.5t25 -14.5l11 12q-10 7 -12.5 12.5t-4.5 14.5q-3 18 -10 34q-21 47 -64.5 73t-97.5 26q-55 0 -96.5 -26t-64.5 -73q-9 -19 -11 -34q-1 -9 -4 -14t-13 -13l11 -12q11 10 22.5 14.5zM168 666.5
q-19 18.5 -19 44.5t19 44t46 18t46 -18t19 -44t-19 -44.5t-46 -18.5t-46 18.5zM368 666.5q-19 18.5 -19 44.5t19 44t46 18t46 -18t19 -44t-19 -44.5t-46 -18.5t-46 18.5z" />
    <glyph glyph-name="igrave" unicode="&#xec;" horiz-adv-x="227" 
d="M71 0v553h85v-553h-85zM160 611h-78l-143 152h104z" />
    <glyph glyph-name="iacute" unicode="&#xed;" horiz-adv-x="227" 
d="M71 0v553h85v-553h-85zM68 611l117 152h104l-143 -152h-78z" />
    <glyph glyph-name="icircumflex" unicode="&#xee;" horiz-adv-x="227" 
d="M71 0v553h85v-553h-85zM107 788h14l162 -170h-98l-35 43q-14 18 -21.5 31.5t-7.5 25.5h-14q0 -12 -7.5 -25.5t-21.5 -31.5l-35 -43h-98z" />
    <glyph glyph-name="idieresis" unicode="&#xef;" horiz-adv-x="227" 
d="M71 0v553h85v-553h-85zM-32 666.5q-19 18.5 -19 44.5t19 44t46 18t46 -18t19 -44t-19 -44.5t-46 -18.5t-46 18.5zM168 666.5q-19 18.5 -19 44.5t19 44t46 18t46 -18t19 -44t-19 -44.5t-46 -18.5t-46 18.5z" />
    <glyph glyph-name="eth" unicode="&#xf0;" horiz-adv-x="605" 
d="M150 24.5q-56 33.5 -87 92t-31 130.5t30 127.5t84.5 86.5t126.5 31q58 0 108.5 -25t88.5 -73q-2 159 -61 238l-152 -87l-32 55l132 76q-40 21 -82 21q-53 0 -92 -25l-45 67q57 33 137 33q93 0 158 -52l75 43l32 -55l-62 -36q76 -107 76 -303q0 -174 -68.5 -276
t-208.5 -102q-71 0 -127 33.5zM367.5 89.5q39.5 23.5 61.5 65.5t22 93q0 47 -22.5 85.5t-61 61t-86.5 22.5t-85.5 -22t-58 -60.5t-20.5 -86.5q0 -49 20.5 -90.5t57 -66.5t83.5 -25q50 0 89.5 23.5z" />
    <glyph glyph-name="ntilde" unicode="&#xf1;" horiz-adv-x="576" 
d="M71 553h85v-36q0 -14 -2.5 -23.5t-9.5 -18.5l14 -9q38 52 75 74.5t87 22.5q117 0 163 -87q17 -33 21.5 -67.5t4.5 -75.5v-333h-85v333q0 88 -32 124q-28 31 -85 31q-63 0 -101 -41q-27 -28 -38.5 -77t-11.5 -134v-236h-85v553zM305.5 626.5q-20.5 13.5 -42.5 37.5
q-14 16 -24 23.5t-22 7.5q-37 0 -42 -78h-67q3 71 33 111t80 40q30 0 49 -13t41 -37q16 -17 26 -24.5t23 -7.5q16 0 26 19.5t12 57.5h69q-5 -76 -30.5 -113t-77.5 -37q-33 0 -53.5 13.5z" />
    <glyph glyph-name="ograve" unicode="&#xf2;" horiz-adv-x="639" 
d="M178.5 27q-61.5 37 -96 103t-34.5 149q0 81 34.5 146t96 101.5t139.5 36.5t140 -36.5t97 -101.5t35 -146q0 -83 -34.5 -148.5t-96.5 -103t-141 -37.5q-78 0 -139.5 37zM412.5 93q42.5 28 67 76.5t24.5 109.5q0 58 -24 106t-66.5 75.5t-95.5 27.5q-52 0 -94.5 -27
t-66.5 -75t-24 -107q0 -61 24 -110t66.5 -76.5t94.5 -27.5t94.5 28zM365 611h-78l-143 152h104z" />
    <glyph glyph-name="oacute" unicode="&#xf3;" horiz-adv-x="639" 
d="M178.5 27q-61.5 37 -96 103t-34.5 149q0 81 34.5 146t96 101.5t139.5 36.5t140 -36.5t97 -101.5t35 -146q0 -83 -34.5 -148.5t-96.5 -103t-141 -37.5q-78 0 -139.5 37zM412.5 93q42.5 28 67 76.5t24.5 109.5q0 58 -24 106t-66.5 75.5t-95.5 27.5q-52 0 -94.5 -27
t-66.5 -75t-24 -107q0 -61 24 -110t66.5 -76.5t94.5 -27.5t94.5 28zM273 611l117 152h104l-143 -152h-78z" />
    <glyph glyph-name="ocircumflex" unicode="&#xf4;" horiz-adv-x="639" 
d="M178.5 27q-61.5 37 -96 103t-34.5 149q0 81 34.5 146t96 101.5t139.5 36.5t140 -36.5t97 -101.5t35 -146q0 -83 -34.5 -148.5t-96.5 -103t-141 -37.5q-78 0 -139.5 37zM412.5 93q42.5 28 67 76.5t24.5 109.5q0 58 -24 106t-66.5 75.5t-95.5 27.5q-52 0 -94.5 -27
t-66.5 -75t-24 -107q0 -61 24 -110t66.5 -76.5t94.5 -27.5t94.5 28zM312 788h14l162 -170h-98l-35 43q-14 18 -21.5 31.5t-7.5 25.5h-14q0 -12 -7.5 -25.5t-21.5 -31.5l-35 -43h-98z" />
    <glyph glyph-name="otilde" unicode="&#xf5;" horiz-adv-x="639" 
d="M178.5 27q-61.5 37 -96 103t-34.5 149q0 81 34.5 146t96 101.5t139.5 36.5t140 -36.5t97 -101.5t35 -146q0 -83 -34.5 -148.5t-96.5 -103t-141 -37.5q-78 0 -139.5 37zM412.5 93q42.5 28 67 76.5t24.5 109.5q0 58 -24 106t-66.5 75.5t-95.5 27.5q-52 0 -94.5 -27
t-66.5 -75t-24 -107q0 -61 24 -110t66.5 -76.5t94.5 -27.5t94.5 28zM335.5 626.5q-20.5 13.5 -42.5 37.5q-14 16 -24 23.5t-22 7.5q-37 0 -42 -78h-67q3 71 33 111t80 40q30 0 49 -13t41 -37q16 -17 26 -24.5t23 -7.5q16 0 26 19.5t12 57.5h69q-5 -76 -30.5 -113t-77.5 -37
q-33 0 -53.5 13.5z" />
    <glyph glyph-name="odieresis" unicode="&#xf6;" horiz-adv-x="639" 
d="M178.5 27q-61.5 37 -96 103t-34.5 149q0 81 34.5 146t96 101.5t139.5 36.5t140 -36.5t97 -101.5t35 -146q0 -83 -34.5 -148.5t-96.5 -103t-141 -37.5q-78 0 -139.5 37zM412.5 93q42.5 28 67 76.5t24.5 109.5q0 58 -24 106t-66.5 75.5t-95.5 27.5q-52 0 -94.5 -27
t-66.5 -75t-24 -107q0 -61 24 -110t66.5 -76.5t94.5 -27.5t94.5 28zM173 666.5q-19 18.5 -19 44.5t19 44t46 18t46 -18t19 -44t-19 -44.5t-46 -18.5t-46 18.5zM373 666.5q-19 18.5 -19 44.5t19 44t46 18t46 -18t19 -44t-19 -44.5t-46 -18.5t-46 18.5z" />
    <glyph glyph-name="divide" unicode="&#xf7;" horiz-adv-x="470" 
d="M184 465v127h102v-127h-102zM27 304v71h416v-71h-416zM184 76v129h102v-129h-102z" />
    <glyph glyph-name="oslash" unicode="&#xf8;" horiz-adv-x="639" 
d="M590 279q0 -83 -34.5 -148.5t-96.5 -103t-141 -37.5q-52 0 -97 16.5t-80 47.5l-39 -39l-45 45l42 42q-51 74 -51 177q0 81 34.5 146t96 101.5t139.5 36.5q103 0 178 -64l39 39l45 -46l-41 -41q51 -75 51 -172zM160 163l278 278q-50 47 -120 47q-52 0 -94.5 -27t-66.5 -75
t-24 -107q0 -64 27 -116zM412.5 93q42.5 28 67 76.5t24.5 109.5q0 60 -27 111l-278 -278q50 -47 119 -47q52 0 94.5 28z" />
    <glyph glyph-name="ugrave" unicode="&#xf9;" horiz-adv-x="578" 
d="M95 77q-17 33 -21.5 67.5t-4.5 75.5v333h85v-333q0 -88 32 -124q28 -31 85 -31q63 0 101 41q27 28 38.5 77t11.5 134v236h85v-553h-85v36q0 14 2.5 23.5t9.5 18.5l-14 9q-38 -52 -75 -74.5t-87 -22.5q-117 0 -163 87zM335 611h-78l-143 152h104z" />
    <glyph glyph-name="uacute" unicode="&#xfa;" horiz-adv-x="578" 
d="M95 77q-17 33 -21.5 67.5t-4.5 75.5v333h85v-333q0 -88 32 -124q28 -31 85 -31q63 0 101 41q27 28 38.5 77t11.5 134v236h85v-553h-85v36q0 14 2.5 23.5t9.5 18.5l-14 9q-38 -52 -75 -74.5t-87 -22.5q-117 0 -163 87zM243 611l117 152h104l-143 -152h-78z" />
    <glyph glyph-name="ucircumflex" unicode="&#xfb;" horiz-adv-x="578" 
d="M95 77q-17 33 -21.5 67.5t-4.5 75.5v333h85v-333q0 -88 32 -124q28 -31 85 -31q63 0 101 41q27 28 38.5 77t11.5 134v236h85v-553h-85v36q0 14 2.5 23.5t9.5 18.5l-14 9q-38 -52 -75 -74.5t-87 -22.5q-117 0 -163 87zM282 788h14l162 -170h-98l-35 43q-14 18 -21.5 31.5
t-7.5 25.5h-14q0 -12 -7.5 -25.5t-21.5 -31.5l-35 -43h-98z" />
    <glyph glyph-name="udieresis" unicode="&#xfc;" horiz-adv-x="578" 
d="M95 77q-17 33 -21.5 67.5t-4.5 75.5v333h85v-333q0 -88 32 -124q28 -31 85 -31q63 0 101 41q27 28 38.5 77t11.5 134v236h85v-553h-85v36q0 14 2.5 23.5t9.5 18.5l-14 9q-38 -52 -75 -74.5t-87 -22.5q-117 0 -163 87zM143 666.5q-19 18.5 -19 44.5t19 44t46 18t46 -18
t19 -44t-19 -44.5t-46 -18.5t-46 18.5zM343 666.5q-19 18.5 -19 44.5t19 44t46 18t46 -18t19 -44t-19 -44.5t-46 -18.5t-46 18.5z" />
    <glyph glyph-name="yacute" unicode="&#xfd;" horiz-adv-x="549" 
d="M71 -132h52q25 0 38 3.5t23 15.5t20 39l30 82l-216 545h94l146 -373q6 -15 9 -29.5t6 -30.5h13q4 33 14 60l136 373h92l-245 -664q-22 -59 -50 -79t-80 -20h-82v78zM228 611l117 152h104l-143 -152h-78z" />
    <glyph glyph-name="thorn" unicode="&#xfe;" horiz-adv-x="634" 
d="M72 763h85v-246q0 -14 -2.5 -23.5t-9.5 -18.5l14 -9q39 53 78.5 75t100.5 22q73 0 129 -36t86.5 -101t30.5 -149t-30.5 -149.5t-86 -101.5t-129.5 -36q-61 0 -100.5 22t-78.5 75l-14 -9q7 -9 9.5 -18.5t2.5 -23.5v-246h-85v973zM419.5 92.5q38.5 27.5 59 75.5t20.5 109
q0 60 -20.5 108t-59 75.5t-89.5 27.5t-91 -27t-62.5 -75.5t-22.5 -108.5q0 -61 22.5 -109t62.5 -75.5t91 -27.5t89.5 27.5z" />
    <glyph glyph-name="ydieresis" unicode="&#xff;" horiz-adv-x="549" 
d="M71 -132h52q25 0 38 3.5t23 15.5t20 39l30 82l-216 545h94l146 -373q6 -15 9 -29.5t6 -30.5h13q4 33 14 60l136 373h92l-245 -664q-22 -59 -50 -79t-80 -20h-82v78zM128 666.5q-19 18.5 -19 44.5t19 44t46 18t46 -18t19 -44t-19 -44.5t-46 -18.5t-46 18.5zM328 666.5
q-19 18.5 -19 44.5t19 44t46 18t46 -18t19 -44t-19 -44.5t-46 -18.5t-46 18.5z" />
    <glyph glyph-name="Amacron" unicode="&#x100;" horiz-adv-x="694" 
d="M14 0l281 763h104l281 -763h-93l-67 187h-346l-67 -187h-93zM489 269l-116 327q-9 26 -13.5 43t-4.5 38h-16q0 -21 -4.5 -38t-13.5 -43l-116 -327h284zM199 870v43h296v-43h-296z" />
    <glyph glyph-name="amacron" unicode="&#x101;" horiz-adv-x="576" 
d="M96.5 32q-48.5 42 -48.5 115q0 72 54 114q44 35 127 52l197 38q1 64 -34 99q-38 38 -102 38q-51 0 -88.5 -27.5t-47.5 -73.5h-85q14 83 76.5 129.5t145.5 46.5q49 0 91 -14.5t71 -42.5q38 -36 48 -83t10 -97v-326h-85v26q0 25 10 57l-14 6q-27 -43 -63 -67
q-25 -17 -56.5 -24.5t-74.5 -7.5q-83 0 -131.5 42zM326 84q49 25 72 67q17 30 22.5 57t6.5 33q3 15 8 22t15 8l-3 16l-129 -27l-71 -14q-62 -12 -91 -39q-23 -23 -23 -58q0 -38 28.5 -61t76.5 -23t88 19zM147 660v43h296v-43h-296z" />
    <glyph glyph-name="Abreve" unicode="&#x102;" horiz-adv-x="694" 
d="M14 0l281 763h104l281 -763h-93l-67 187h-346l-67 -187h-93zM489 269l-116 327q-9 26 -13.5 43t-4.5 38h-16q0 -21 -4.5 -38t-13.5 -43l-116 -327h284zM226.5 857.5q-41.5 39.5 -46.5 111.5h62q4 -44 32 -67t73 -23q44 0 71.5 23t31.5 67h64q-4 -70 -47.5 -110.5
t-119.5 -40.5q-79 0 -120.5 39.5z" />
    <glyph glyph-name="abreve" unicode="&#x103;" horiz-adv-x="576" 
d="M96.5 32q-48.5 42 -48.5 115q0 72 54 114q44 35 127 52l197 38q1 64 -34 99q-38 38 -102 38q-51 0 -88.5 -27.5t-47.5 -73.5h-85q14 83 76.5 129.5t145.5 46.5q49 0 91 -14.5t71 -42.5q38 -36 48 -83t10 -97v-326h-85v26q0 25 10 57l-14 6q-27 -43 -63 -67
q-25 -17 -56.5 -24.5t-74.5 -7.5q-83 0 -131.5 42zM326 84q49 25 72 67q17 30 22.5 57t6.5 33q3 15 8 22t15 8l-3 16l-129 -27l-71 -14q-62 -12 -91 -39q-23 -23 -23 -58q0 -38 28.5 -61t76.5 -23t88 19zM174.5 647.5q-41.5 39.5 -46.5 111.5h62q4 -44 32 -67t73 -23
q44 0 71.5 23t31.5 67h64q-4 -70 -47.5 -110.5t-119.5 -40.5q-79 0 -120.5 39.5z" />
    <glyph glyph-name="Aogonek" unicode="&#x104;" horiz-adv-x="694" 
d="M14 0l281 763h104l281 -763h-93l-67 187h-346l-67 -187h-93zM489 269l-116 327q-9 26 -13.5 43t-4.5 38h-16q0 -21 -4.5 -38t-13.5 -43l-116 -327h284zM554.5 -195q-28.5 25 -28.5 67q0 37 25 64t79 49v15h50q-10 -10 -26 -24q-37 -34 -50 -51t-13 -40t14 -36.5t39 -13.5
q19 0 36 6v-54q-28 -7 -51 -7q-46 0 -74.5 25z" />
    <glyph glyph-name="aogonek" unicode="&#x105;" horiz-adv-x="576" 
d="M485 -24q-37 -34 -50 -51t-13 -40t14 -36.5t39 -13.5q19 0 36 6v-54q-28 -7 -51 -7q-46 0 -74.5 25t-28.5 67q0 37 25 64t79 49v15h-35v26q0 25 10 57l-14 6q-27 -43 -63 -67q-25 -17 -56.5 -24.5t-74.5 -7.5q-83 0 -131.5 42t-48.5 115q0 72 54 114q44 35 127 52l197 38
q1 64 -34 99q-38 38 -102 38q-51 0 -88.5 -27.5t-47.5 -73.5h-85q14 83 76.5 129.5t145.5 46.5q49 0 91 -14.5t71 -42.5q38 -36 48 -83t10 -97v-326q-10 -10 -26 -24zM435 263q5 7 15 8l-3 16l-129 -27l-71 -14q-62 -12 -91 -39q-23 -23 -23 -58q0 -38 28.5 -61t76.5 -23
t88 19q49 25 72 67q17 30 22.5 57t6.5 33q3 15 8 22z" />
    <glyph glyph-name="Cacute" unicode="&#x106;" horiz-adv-x="748" 
d="M207 43.5q-79 53.5 -118 142.5t-39 196t39 196t118 142t195 53q83 0 148 -28t105 -78t52 -115h-100q-14 64 -69.5 101.5t-137.5 37.5q-83 0 -141 -39.5t-87.5 -109.5t-29.5 -160q0 -91 29.5 -161t87.5 -109.5t141 -39.5q84 0 138.5 40.5t68.5 118.5h100
q-18 -112 -98.5 -176.5t-206.5 -64.5q-116 0 -195 53.5zM326 821l117 152h104l-143 -152h-78z" />
    <glyph glyph-name="cacute" unicode="&#x107;" horiz-adv-x="602" 
d="M177 27q-61 37 -95 103t-34 149q0 81 34 146t95 101.5t139 36.5q93 0 157.5 -47.5t83.5 -128.5h-91q-16 46 -56.5 73.5t-93.5 27.5q-52 0 -93.5 -27t-65.5 -74.5t-24 -107.5q0 -62 23.5 -110.5t65.5 -76t94 -27.5q57 0 98.5 31t55.5 82h91q-18 -88 -84.5 -138t-160.5 -50
q-78 0 -139 37zM256 611l117 152h104l-143 -152h-78z" />
    <glyph glyph-name="Cdotaccent" unicode="&#x10a;" horiz-adv-x="748" 
d="M207 43.5q-79 53.5 -118 142.5t-39 196t39 196t118 142t195 53q83 0 148 -28t105 -78t52 -115h-100q-14 64 -69.5 101.5t-137.5 37.5q-83 0 -141 -39.5t-87.5 -109.5t-29.5 -160q0 -91 29.5 -161t87.5 -109.5t141 -39.5q84 0 138.5 40.5t68.5 118.5h100
q-18 -112 -98.5 -176.5t-206.5 -64.5q-116 0 -195 53.5zM330.5 827.5q-17.5 16.5 -17.5 40.5t17.5 41t41.5 17q23 0 40.5 -17t17.5 -41q0 -23 -17.5 -40t-40.5 -17q-24 0 -41.5 16.5z" />
    <glyph glyph-name="cdotaccent" unicode="&#x10b;" horiz-adv-x="602" 
d="M177 27q-61 37 -95 103t-34 149q0 81 34 146t95 101.5t139 36.5q93 0 157.5 -47.5t83.5 -128.5h-91q-16 46 -56.5 73.5t-93.5 27.5q-52 0 -93.5 -27t-65.5 -74.5t-24 -107.5q0 -62 23.5 -110.5t65.5 -76t94 -27.5q57 0 98.5 31t55.5 82h91q-18 -88 -84.5 -138t-160.5 -50
q-78 0 -139 37zM256 666.5q-19 18.5 -19 44.5t19 44t46 18t46 -18t19 -44t-19 -44.5t-46 -18.5t-46 18.5z" />
    <glyph glyph-name="Ccaron" unicode="&#x10c;" horiz-adv-x="748" 
d="M207 43.5q-79 53.5 -118 142.5t-39 196t39 196t118 142t195 53q83 0 148 -28t105 -78t52 -115h-100q-14 64 -69.5 101.5t-137.5 37.5q-83 0 -141 -39.5t-87.5 -109.5t-29.5 -160q0 -91 29.5 -161t87.5 -109.5t141 -39.5q84 0 138.5 40.5t68.5 118.5h100
q-18 -112 -98.5 -176.5t-206.5 -64.5q-116 0 -195 53.5zM203 974h98l35 -43q14 -18 21.5 -31.5t7.5 -25.5h14q0 12 7.5 25.5t21.5 31.5l35 43h98l-162 -170h-14z" />
    <glyph glyph-name="ccaron" unicode="&#x10d;" horiz-adv-x="602" 
d="M177 27q-61 37 -95 103t-34 149q0 81 34 146t95 101.5t139 36.5q93 0 157.5 -47.5t83.5 -128.5h-91q-16 46 -56.5 73.5t-93.5 27.5q-52 0 -93.5 -27t-65.5 -74.5t-24 -107.5q0 -62 23.5 -110.5t65.5 -76t94 -27.5q57 0 98.5 31t55.5 82h91q-18 -88 -84.5 -138t-160.5 -50
q-78 0 -139 37zM133 764h98l35 -43q14 -18 21.5 -31.5t7.5 -25.5h14q0 12 7.5 25.5t21.5 31.5l35 43h98l-162 -170h-14z" />
    <glyph glyph-name="Dcaron" unicode="&#x10e;" horiz-adv-x="732" 
d="M79 763h210q190 0 291 -100t101 -284q0 -181 -101.5 -280t-291.5 -99h-209v763zM507 148q82 65 82 231q0 301 -301 301h-117v-597h116q138 0 220 65zM187 974h98l35 -43q14 -18 21.5 -31.5t7.5 -25.5h14q0 12 7.5 25.5t21.5 31.5l35 43h98l-162 -170h-14z" />
    <glyph glyph-name="dcaron" unicode="&#x10f;" horiz-adv-x="634" 
d="M167 26q-56 36 -86.5 101t-30.5 149t30.5 149.5t86 101.5t129.5 36q61 0 100.5 -22t78.5 -75l14 9q-7 9 -9.5 18.5t-2.5 23.5v246h85v-763h-85v36q0 14 2.5 23.5t9.5 18.5l-14 9q-39 -53 -78.5 -75t-100.5 -22q-73 0 -129 36zM395 92q40 27 62.5 75.5t22.5 108.5
q0 61 -22.5 109t-62.5 75.5t-91 27.5t-89.5 -27.5t-59 -75.5t-20.5 -109q0 -60 20.5 -108t59 -75.5t89.5 -27.5t91 27zM726 575q25 29 25 72q0 15 -3 30h-12q-1 -11 -10.5 -16.5t-22.5 -5.5q-22 0 -37 15.5t-15 41.5q0 27 17.5 44t46.5 17q39 0 62.5 -32t23.5 -84
q0 -61 -36.5 -108t-109.5 -55v45q46 7 71 36z" />
    <glyph glyph-name="Dcroat" unicode="&#x110;" horiz-adv-x="732" 
d="M580 663q101 -100 101 -284q0 -181 -101.5 -280t-291.5 -99h-209v346h-72v71h72v346h210q190 0 291 -100zM507 148q82 65 82 231q0 301 -301 301h-117v-263h245v-71h-245v-263h116q138 0 220 65z" />
    <glyph glyph-name="Emacron" unicode="&#x112;" horiz-adv-x="616" 
d="M79 0v763h493v-83h-401v-256h354v-82h-354v-259h401v-83h-493zM178 870v43h296v-43h-296z" />
    <glyph glyph-name="emacron" unicode="&#x113;" horiz-adv-x="629" 
d="M177.5 27q-61.5 37 -95.5 102t-34 146q0 77 32 142.5t92.5 105.5t142.5 40q71 0 132 -32t98 -93.5t37 -147.5v-30h-395h-27.5t-37.5 2l-3 -16q9 -2 12.5 -6.5t6 -15t5.5 -19.5q21 -64 67.5 -102t105.5 -38q60 0 103 32t62 81h91q-27 -84 -92 -136t-163 -52
q-78 0 -139.5 37zM161.5 330.5q11.5 4.5 28.5 4.5h248q19 0 32 -4.5t25 -14.5l11 12q-10 7 -12.5 12.5t-4.5 14.5q-3 18 -10 34q-21 47 -64.5 73t-97.5 26q-55 0 -96.5 -26t-64.5 -73q-9 -19 -11 -34q-1 -9 -4 -14t-13 -13l11 -12q11 10 22.5 14.5zM166 660v43h296v-43h-296
z" />
    <glyph glyph-name="Edotaccent" unicode="&#x116;" horiz-adv-x="616" 
d="M79 0v763h493v-83h-401v-256h354v-82h-354v-259h401v-83h-493zM284.5 827.5q-17.5 16.5 -17.5 40.5t17.5 41t41.5 17q23 0 40.5 -17t17.5 -41q0 -23 -17.5 -40t-40.5 -17q-24 0 -41.5 16.5z" />
    <glyph glyph-name="edotaccent" unicode="&#x117;" horiz-adv-x="629" 
d="M177.5 27q-61.5 37 -95.5 102t-34 146q0 77 32 142.5t92.5 105.5t142.5 40q71 0 132 -32t98 -93.5t37 -147.5v-30h-395h-27.5t-37.5 2l-3 -16q9 -2 12.5 -6.5t6 -15t5.5 -19.5q21 -64 67.5 -102t105.5 -38q60 0 103 32t62 81h91q-27 -84 -92 -136t-163 -52
q-78 0 -139.5 37zM161.5 330.5q11.5 4.5 28.5 4.5h248q19 0 32 -4.5t25 -14.5l11 12q-10 7 -12.5 12.5t-4.5 14.5q-3 18 -10 34q-21 47 -64.5 73t-97.5 26q-55 0 -96.5 -26t-64.5 -73q-9 -19 -11 -34q-1 -9 -4 -14t-13 -13l11 -12q11 10 22.5 14.5zM268 666.5
q-19 18.5 -19 44.5t19 44t46 18t46 -18t19 -44t-19 -44.5t-46 -18.5t-46 18.5z" />
    <glyph glyph-name="Eogonek" unicode="&#x118;" horiz-adv-x="616" 
d="M79 0v763h493v-83h-401v-256h354v-82h-354v-259h401v-83h-493zM446.5 -195q-28.5 25 -28.5 67q0 37 25 64t79 49v15h50q-10 -10 -26 -24q-37 -34 -50 -51t-13 -40t14 -36.5t39 -13.5q19 0 36 6v-54q-28 -7 -51 -7q-46 0 -74.5 25z" />
    <glyph glyph-name="eogonek" unicode="&#x119;" horiz-adv-x="629" 
d="M159.5 260q-20.5 0 -37.5 2l-3 -16q9 -2 12.5 -6.5t6 -15t5.5 -19.5q21 -64 67.5 -102t105.5 -38q60 0 103 32t62 81h91q-29 -88 -95 -138q-9 -9 -23 -21q-36 -34 -49 -51t-13 -39q0 -23 14 -36.5t39 -13.5q19 0 36 6v-54q-28 -7 -51 -7q-46 0 -74.5 25t-28.5 67
q0 47 40 78q-21 -4 -50 -4q-78 0 -139.5 37t-95.5 102t-34 146q0 77 32 142.5t92.5 105.5t142.5 40q71 0 132 -32t98 -93.5t37 -147.5v-30h-395h-27.5zM145 355q-1 -9 -4 -14t-13 -13l11 -12q11 10 22.5 14.5t28.5 4.5h248q19 0 32 -4.5t25 -14.5l11 12q-10 7 -12.5 12.5
t-4.5 14.5q-3 18 -10 34q-21 47 -64.5 73t-97.5 26q-55 0 -96.5 -26t-64.5 -73q-9 -19 -11 -34z" />
    <glyph glyph-name="Ecaron" unicode="&#x11a;" horiz-adv-x="616" 
d="M79 0v763h493v-83h-401v-256h354v-82h-354v-259h401v-83h-493zM157 974h98l35 -43q14 -18 21.5 -31.5t7.5 -25.5h14q0 12 7.5 25.5t21.5 31.5l35 43h98l-162 -170h-14z" />
    <glyph glyph-name="ecaron" unicode="&#x11b;" horiz-adv-x="629" 
d="M177.5 27q-61.5 37 -95.5 102t-34 146q0 77 32 142.5t92.5 105.5t142.5 40q71 0 132 -32t98 -93.5t37 -147.5v-30h-395h-27.5t-37.5 2l-3 -16q9 -2 12.5 -6.5t6 -15t5.5 -19.5q21 -64 67.5 -102t105.5 -38q60 0 103 32t62 81h91q-27 -84 -92 -136t-163 -52
q-78 0 -139.5 37zM161.5 330.5q11.5 4.5 28.5 4.5h248q19 0 32 -4.5t25 -14.5l11 12q-10 7 -12.5 12.5t-4.5 14.5q-3 18 -10 34q-21 47 -64.5 73t-97.5 26q-55 0 -96.5 -26t-64.5 -73q-9 -19 -11 -34q-1 -9 -4 -14t-13 -13l11 -12q11 10 22.5 14.5zM145 764h98l35 -43
q14 -18 21.5 -31.5t7.5 -25.5h14q0 12 7.5 25.5t21.5 31.5l35 43h98l-162 -170h-14z" />
    <glyph glyph-name="Gbreve" unicode="&#x11e;" horiz-adv-x="807" 
d="M209.5 44.5q-81.5 54.5 -120.5 143t-39 193.5t39.5 194t120 143.5t199.5 54.5q124 0 206.5 -59.5t115.5 -160.5h-103q-26 64 -83 101t-138 37q-89 0 -148.5 -42.5t-88 -112.5t-28.5 -152q0 -86 30 -157t90.5 -113t146.5 -42q80 0 140.5 37.5t86.5 101.5q8 20 12 39t6 34
q2 12 4.5 22t7.5 15l-12 12q-13 -11 -26 -13.5t-50 -2.5h-107v82h273v-399h-84v126h-16q0 -27 -17 -50.5t-47 -41.5q-34 -20 -79 -32t-91 -12q-119 0 -200.5 54.5zM283.5 857.5q-41.5 39.5 -46.5 111.5h62q4 -44 32 -67t73 -23q44 0 71.5 23t31.5 67h64q-4 -70 -47.5 -110.5
t-119.5 -40.5q-79 0 -120.5 39.5z" />
    <glyph glyph-name="gbreve" unicode="&#x11f;" horiz-adv-x="635" 
d="M151.5 -179q-68.5 41 -83.5 134h87q26 -100 159 -100q165 0 165 148v33q0 18 2 25t10 17l-14 9q-39 -53 -78.5 -75t-100.5 -22q-73 0 -129 36t-86.5 100.5t-30.5 147.5q0 85 30.5 150.5t86 102t128.5 36.5q62 0 101.5 -22t78.5 -75l14 9q-7 9 -9.5 18.5t-2.5 23.5v36h85
v-534q0 -128 -66 -183.5t-183 -55.5q-95 0 -163.5 41zM397 92.5q40 27.5 62.5 75.5t22.5 109q0 60 -22.5 108t-63 75.5t-90.5 27.5q-51 0 -89.5 -27.5t-59 -75.5t-20.5 -108q0 -61 20.5 -109t59 -75.5t89.5 -27.5t91 27.5zM197.5 647.5q-41.5 39.5 -46.5 111.5h62
q4 -44 32 -67t73 -23q44 0 71.5 23t31.5 67h64q-4 -70 -47.5 -110.5t-119.5 -40.5q-79 0 -120.5 39.5z" />
    <glyph glyph-name="Gdotaccent" unicode="&#x120;" horiz-adv-x="807" 
d="M209.5 44.5q-81.5 54.5 -120.5 143t-39 193.5t39.5 194t120 143.5t199.5 54.5q124 0 206.5 -59.5t115.5 -160.5h-103q-26 64 -83 101t-138 37q-89 0 -148.5 -42.5t-88 -112.5t-28.5 -152q0 -86 30 -157t90.5 -113t146.5 -42q80 0 140.5 37.5t86.5 101.5q8 20 12 39t6 34
q2 12 4.5 22t7.5 15l-12 12q-13 -11 -26 -13.5t-50 -2.5h-107v82h273v-399h-84v126h-16q0 -27 -17 -50.5t-47 -41.5q-34 -20 -79 -32t-91 -12q-119 0 -200.5 54.5zM362.5 827.5q-17.5 16.5 -17.5 40.5t17.5 41t41.5 17q23 0 40.5 -17t17.5 -41q0 -23 -17.5 -40t-40.5 -17
q-24 0 -41.5 16.5z" />
    <glyph glyph-name="gdotaccent" unicode="&#x121;" horiz-adv-x="635" 
d="M151.5 -179q-68.5 41 -83.5 134h87q26 -100 159 -100q165 0 165 148v33q0 18 2 25t10 17l-14 9q-39 -53 -78.5 -75t-100.5 -22q-73 0 -129 36t-86.5 100.5t-30.5 147.5q0 85 30.5 150.5t86 102t128.5 36.5q62 0 101.5 -22t78.5 -75l14 9q-7 9 -9.5 18.5t-2.5 23.5v36h85
v-534q0 -128 -66 -183.5t-183 -55.5q-95 0 -163.5 41zM397 92.5q40 27.5 62.5 75.5t22.5 109q0 60 -22.5 108t-63 75.5t-90.5 27.5q-51 0 -89.5 -27.5t-59 -75.5t-20.5 -108q0 -61 20.5 -109t59 -75.5t89.5 -27.5t91 27.5zM272 666.5q-19 18.5 -19 44.5t19 44t46 18t46 -18
t19 -44t-19 -44.5t-46 -18.5t-46 18.5z" />
    <glyph glyph-name="uni0122" unicode="&#x122;" horiz-adv-x="807" 
d="M209.5 44.5q-81.5 54.5 -120.5 143t-39 193.5t39.5 194t120 143.5t199.5 54.5q124 0 206.5 -59.5t115.5 -160.5h-103q-26 64 -83 101t-138 37q-89 0 -148.5 -42.5t-88 -112.5t-28.5 -152q0 -86 30 -157t90.5 -113t146.5 -42q80 0 140.5 37.5t86.5 101.5q8 20 12 39t6 34
q2 12 4.5 22t7.5 15l-12 12q-13 -11 -26 -13.5t-50 -2.5h-107v82h273v-399h-84v126h-16q0 -27 -17 -50.5t-47 -41.5q-34 -20 -79 -32t-91 -12q-119 0 -200.5 54.5zM412.5 -170q19.5 11 19.5 31q0 6 -1 10h-10q-1 -8 -8 -13t-18 -5q-18 0 -30 13t-12 33q0 22 14 35.5t37 13.5
q32 0 50.5 -20t18.5 -54q0 -40 -29.5 -62t-87.5 -22v29q37 0 56.5 11z" />
    <glyph glyph-name="uni0123" unicode="&#x123;" horiz-adv-x="635" 
d="M151.5 -179q-68.5 41 -83.5 134h87q26 -100 159 -100q165 0 165 148v33q0 18 2 25t10 17l-14 9q-39 -53 -78.5 -75t-100.5 -22q-73 0 -129 36t-86.5 100.5t-30.5 147.5q0 85 30.5 150.5t86 102t128.5 36.5q62 0 101.5 -22t78.5 -75l14 9q-7 9 -9.5 18.5t-2.5 23.5v36h85
v-534q0 -128 -66 -183.5t-183 -55.5q-95 0 -163.5 41zM397 92.5q40 27.5 62.5 75.5t22.5 109q0 60 -22.5 108t-63 75.5t-90.5 27.5q-51 0 -89.5 -27.5t-59 -75.5t-20.5 -108q0 -61 20.5 -109t59 -75.5t89.5 -27.5t91 27.5zM293 622q-19 23 -19 60q0 44 29.5 77.5t88.5 39.5
v-32q-37 -5 -57 -25.5t-20 -51.5q0 -15 2 -22h9q1 8 9 12t18 4q17 0 29.5 -11.5t12.5 -29.5q0 -19 -14 -31.5t-38 -12.5q-31 0 -50 23z" />
    <glyph glyph-name="Imacron" unicode="&#x12a;" horiz-adv-x="251" 
d="M79 0v763h92v-763h-92zM-23 870v43h296v-43h-296z" />
    <glyph glyph-name="imacron" unicode="&#x12b;" horiz-adv-x="227" 
d="M71 0v553h85v-553h-85zM-34 660v43h296v-43h-296z" />
    <glyph glyph-name="Iogonek" unicode="&#x12e;" horiz-adv-x="251" 
d="M79 0v763h92v-763h-92zM45.5 -195q-28.5 25 -28.5 67q0 37 25 64t79 49v15h50q-10 -10 -26 -24q-37 -34 -50 -51t-13 -40t14 -36.5t39 -13.5q19 0 36 6v-54q-28 -7 -51 -7q-46 0 -74.5 25z" />
    <glyph glyph-name="iogonek" unicode="&#x12f;" horiz-adv-x="227" 
d="M71 0v553h85v-553h-85zM68 666.5q-19 18.5 -19 44.5t19 44t46 18t46 -18t19 -44t-19 -44.5t-46 -18.5t-46 18.5zM30.5 -195q-28.5 25 -28.5 67q0 37 25 64t79 49v15h50q-10 -10 -26 -24q-37 -34 -50 -51t-13 -40t14 -36.5t39 -13.5q19 0 36 6v-54q-28 -7 -51 -7
q-46 0 -74.5 25z" />
    <glyph glyph-name="Idotaccent" unicode="&#x130;" horiz-adv-x="251" 
d="M79 0v763h92v-763h-92zM83.5 827.5q-17.5 16.5 -17.5 40.5t17.5 41t41.5 17q23 0 40.5 -17t17.5 -41q0 -23 -17.5 -40t-40.5 -17q-24 0 -41.5 16.5z" />
    <glyph glyph-name="dotlessi" unicode="&#x131;" horiz-adv-x="227" 
d="M71 0v553h85v-553h-85z" />
    <glyph glyph-name="uni0136" unicode="&#x136;" horiz-adv-x="632" 
d="M79 763h92v-353h16q0 14 8.5 26.5t21.5 26.5l271 300h118l-339 -366l357 -397h-122l-285 319q-3 3 -7.5 8t-10.5 13q-14 19 -33 39l-12 -12q11 -11 14 -21.5t3 -39.5v-306h-92v763zM324.5 -170q19.5 11 19.5 31q0 6 -1 10h-10q-1 -8 -8 -13t-18 -5q-18 0 -30 13t-12 33
q0 22 14 35.5t37 13.5q32 0 50.5 -20t18.5 -54q0 -40 -29.5 -62t-87.5 -22v29q37 0 56.5 11z" />
    <glyph glyph-name="uni0137" unicode="&#x137;" horiz-adv-x="554" 
d="M72 763h85v-338q0 -25 -1.5 -44t-8.5 -42l12 -6l25 23l26 24l190 173h118l-237 -212q-11 -10 -21.5 -15t-25.5 -9v-14q27 -8 47 -28l262 -275h-116l-217 232l-19 19q-8 10 -32 34l-12 -5q7 -26 8.5 -47.5t1.5 -50.5v-182h-85v763zM280.5 -170q19.5 11 19.5 31q0 6 -1 10
h-10q-1 -8 -8 -13t-18 -5q-18 0 -30 13t-12 33q0 22 14 35.5t37 13.5q32 0 50.5 -20t18.5 -54q0 -40 -29.5 -62t-87.5 -22v29q37 0 56.5 11z" />
    <glyph glyph-name="kgreenlandic" unicode="&#x138;" horiz-adv-x="555" 
d="M72 553h86v-128q0 -25 -1.5 -44t-8.5 -42l12 -6l25 23l26 24l190 173h118l-271 -243l296 -310h-116l-217 232l-19 19q-8 10 -32 34l-12 -5q7 -26 8.5 -47.5t1.5 -50.5v-182h-86v553z" />
    <glyph glyph-name="Lacute" unicode="&#x139;" horiz-adv-x="528" 
d="M79 0v763h92v-680h342v-83h-434zM79 821l117 152h104l-143 -152h-78z" />
    <glyph glyph-name="lacute" unicode="&#x13a;" horiz-adv-x="277" 
d="M101 30q-32 30 -32 109v624h85v-611q0 -29 4 -44.5t18 -24t44 -8.5h27v-75h-47q-67 0 -99 30zM66 821l117 152h104l-143 -152h-78z" />
    <glyph glyph-name="uni013B" unicode="&#x13b;" horiz-adv-x="528" 
d="M79 0v763h92v-680h342v-83h-434zM304.5 -170q19.5 11 19.5 31q0 6 -1 10h-10q-1 -8 -8 -13t-18 -5q-18 0 -30 13t-12 33q0 22 14 35.5t37 13.5q32 0 50.5 -20t18.5 -54q0 -40 -29.5 -62t-87.5 -22v29q37 0 56.5 11z" />
    <glyph glyph-name="uni013C" unicode="&#x13c;" horiz-adv-x="277" 
d="M101 30q-32 30 -32 109v624h85v-611q0 -29 4 -44.5t18 -24t44 -8.5h27v-75h-47q-67 0 -99 30zM134.5 -170q19.5 11 19.5 31q0 6 -1 10h-10q-1 -8 -8 -13t-18 -5q-18 0 -30 13t-12 33q0 22 14 35.5t37 13.5q32 0 50.5 -20t18.5 -54q0 -40 -29.5 -62t-87.5 -22v29
q37 0 56.5 11z" />
    <glyph glyph-name="Lcaron" unicode="&#x13d;" horiz-adv-x="528" 
d="M79 0v763h92v-680h342v-83h-434zM448 575q25 29 25 72q0 15 -3 30h-12q-1 -11 -10.5 -16.5t-22.5 -5.5q-22 0 -37 15.5t-15 41.5q0 27 17.5 44t46.5 17q39 0 62.5 -32t23.5 -84q0 -61 -36.5 -108t-109.5 -55v45q46 7 71 36z" />
    <glyph glyph-name="lcaron" unicode="&#x13e;" horiz-adv-x="277" 
d="M101 30q-32 30 -32 109v624h85v-611q0 -29 4 -44.5t18 -24t44 -8.5h27v-75h-47q-67 0 -99 30zM302 575q25 29 25 72q0 15 -3 30h-12q-1 -11 -10.5 -16.5t-22.5 -5.5q-22 0 -37 15.5t-15 41.5q0 27 17.5 44t46.5 17q39 0 62.5 -32t23.5 -84q0 -61 -36.5 -108t-109.5 -55
v45q46 7 71 36z" />
    <glyph glyph-name="Lslash" unicode="&#x141;" horiz-adv-x="568" 
d="M114 0v340l-76 -37v78l76 39v343h92v-296l199 103v-78l-199 -103v-306h342v-83h-434z" />
    <glyph glyph-name="lslash" unicode="&#x142;" horiz-adv-x="277" 
d="M247 75v-75h-47q-67 0 -99 30t-32 109v284l-53 -27v60l53 27v280h85v-235l82 42v-60l-82 -42v-316q0 -29 4 -44.5t18 -24t44 -8.5h27z" />
    <glyph glyph-name="Nacute" unicode="&#x143;" horiz-adv-x="727" 
d="M79 763h134l293 -574q24 -46 38 -95l16 3q-4 44 -4 91v575h91v-763h-134l-293 574q-13 26 -21 45t-16 48l-16 -3q4 -44 4 -92v-572h-92v763zM317 821l117 152h104l-143 -152h-78z" />
    <glyph glyph-name="nacute" unicode="&#x144;" horiz-adv-x="576" 
d="M71 553h85v-36q0 -14 -2.5 -23.5t-9.5 -18.5l14 -9q38 52 75 74.5t87 22.5q117 0 163 -87q17 -33 21.5 -67.5t4.5 -75.5v-333h-85v333q0 88 -32 124q-28 31 -85 31q-63 0 -101 -41q-27 -28 -38.5 -77t-11.5 -134v-236h-85v553zM243 611l117 152h104l-143 -152h-78z" />
    <glyph glyph-name="uni0145" unicode="&#x145;" horiz-adv-x="727" 
d="M79 763h134l293 -574q24 -46 38 -95l16 3q-4 44 -4 91v575h91v-763h-134l-293 574q-13 26 -21 45t-16 48l-16 -3q4 -44 4 -92v-572h-92v763zM371.5 -170q19.5 11 19.5 31q0 6 -1 10h-10q-1 -8 -8 -13t-18 -5q-18 0 -30 13t-12 33q0 22 14 35.5t37 13.5q32 0 50.5 -20
t18.5 -54q0 -40 -29.5 -62t-87.5 -22v29q37 0 56.5 11z" />
    <glyph glyph-name="uni0146" unicode="&#x146;" horiz-adv-x="576" 
d="M71 553h85v-36q0 -14 -2.5 -23.5t-9.5 -18.5l14 -9q38 52 75 74.5t87 22.5q117 0 163 -87q17 -33 21.5 -67.5t4.5 -75.5v-333h-85v333q0 88 -32 124q-28 31 -85 31q-63 0 -101 -41q-27 -28 -38.5 -77t-11.5 -134v-236h-85v553zM297.5 -170q19.5 11 19.5 31q0 6 -1 10h-10
q-1 -8 -8 -13t-18 -5q-18 0 -30 13t-12 33q0 22 14 35.5t37 13.5q32 0 50.5 -20t18.5 -54q0 -40 -29.5 -62t-87.5 -22v29q37 0 56.5 11z" />
    <glyph glyph-name="Ncaron" unicode="&#x147;" horiz-adv-x="727" 
d="M79 763h134l293 -574q24 -46 38 -95l16 3q-4 44 -4 91v575h91v-763h-134l-293 574q-13 26 -21 45t-16 48l-16 -3q4 -44 4 -92v-572h-92v763zM194 974h98l35 -43q14 -18 21.5 -31.5t7.5 -25.5h14q0 12 7.5 25.5t21.5 31.5l35 43h98l-162 -170h-14z" />
    <glyph glyph-name="ncaron" unicode="&#x148;" horiz-adv-x="576" 
d="M71 553h85v-36q0 -14 -2.5 -23.5t-9.5 -18.5l14 -9q38 52 75 74.5t87 22.5q117 0 163 -87q17 -33 21.5 -67.5t4.5 -75.5v-333h-85v333q0 88 -32 124q-28 31 -85 31q-63 0 -101 -41q-27 -28 -38.5 -77t-11.5 -134v-236h-85v553zM120 764h98l35 -43q14 -18 21.5 -31.5
t7.5 -25.5h14q0 12 7.5 25.5t21.5 31.5l35 43h98l-162 -170h-14z" />
    <glyph glyph-name="Omacron" unicode="&#x14c;" horiz-adv-x="811" 
d="M209 43q-80 53 -119.5 142.5t-39.5 196.5t39.5 196t119.5 142t195 53q116 0 196.5 -53t120 -141.5t39.5 -196.5t-39.5 -197t-120 -142t-196.5 -53q-115 0 -195 53zM547.5 112.5q59.5 39.5 90 109.5t30.5 160t-30.5 159.5t-90 109t-143.5 39.5q-83 0 -142 -39.5
t-89.5 -109t-30.5 -159.5t30.5 -160t89.5 -109.5t142 -39.5q84 0 143.5 39.5zM257 870v43h296v-43h-296z" />
    <glyph glyph-name="omacron" unicode="&#x14d;" horiz-adv-x="639" 
d="M178.5 27q-61.5 37 -96 103t-34.5 149q0 81 34.5 146t96 101.5t139.5 36.5t140 -36.5t97 -101.5t35 -146q0 -83 -34.5 -148.5t-96.5 -103t-141 -37.5q-78 0 -139.5 37zM412.5 93q42.5 28 67 76.5t24.5 109.5q0 58 -24 106t-66.5 75.5t-95.5 27.5q-52 0 -94.5 -27
t-66.5 -75t-24 -107q0 -61 24 -110t66.5 -76.5t94.5 -27.5t94.5 28zM171 660v43h296v-43h-296z" />
    <glyph glyph-name="Ohungarumlaut" unicode="&#x150;" horiz-adv-x="811" 
d="M209 43q-80 53 -119.5 142.5t-39.5 196.5t39.5 196t119.5 142t195 53q116 0 196.5 -53t120 -141.5t39.5 -196.5t-39.5 -197t-120 -142t-196.5 -53q-115 0 -195 53zM547.5 112.5q59.5 39.5 90 109.5t30.5 160t-30.5 159.5t-90 109t-143.5 39.5q-83 0 -142 -39.5
t-89.5 -109t-30.5 -159.5t30.5 -160t89.5 -109.5t142 -39.5q84 0 143.5 39.5zM275 821l116 152h105l-143 -152h-78zM457 821l118 152h110l-149 -152h-79z" />
    <glyph glyph-name="ohungarumlaut" unicode="&#x151;" horiz-adv-x="639" 
d="M178.5 27q-61.5 37 -96 103t-34.5 149q0 81 34.5 146t96 101.5t139.5 36.5t140 -36.5t97 -101.5t35 -146q0 -83 -34.5 -148.5t-96.5 -103t-141 -37.5q-78 0 -139.5 37zM412.5 93q42.5 28 67 76.5t24.5 109.5q0 58 -24 106t-66.5 75.5t-95.5 27.5q-52 0 -94.5 -27
t-66.5 -75t-24 -107q0 -61 24 -110t66.5 -76.5t94.5 -27.5t94.5 28zM189 611l116 152h105l-143 -152h-78zM371 611l118 152h110l-149 -152h-79z" />
    <glyph glyph-name="OE" unicode="&#x152;" horiz-adv-x="1204" 
d="M209 43q-80 53 -119.5 142.5t-39.5 196.5t39.5 196t119.5 142t195 53q82 0 146 -29.5t115 -89.5l12 5q-10 37 -10 72v32h493v-83h-401v-256h354v-82h-354v-259h401v-83h-493v36q0 33 10 69l-10 6q-54 -61 -119 -91t-144 -30q-115 0 -195 53zM547.5 112.5
q59.5 39.5 90 109.5t30.5 160t-30.5 159.5t-90 109t-143.5 39.5q-83 0 -142 -39.5t-89.5 -109t-30.5 -159.5t30.5 -160t89.5 -109.5t142 -39.5q84 0 143.5 39.5z" />
    <glyph glyph-name="oe" unicode="&#x153;" horiz-adv-x="1268" 
d="M178.5 27q-61.5 37 -96 103t-34.5 149q0 81 34.5 146t96 101.5t139.5 36.5t140 -36.5t97 -101.5t35 -146q0 -83 -34.5 -148.5t-96.5 -103t-141 -37.5q-78 0 -139.5 37zM412.5 93q42.5 28 67 76.5t24.5 109.5q0 58 -24 106t-66.5 75.5t-95.5 27.5q-52 0 -94.5 -27
t-66.5 -75t-24 -107q0 -61 24 -110t66.5 -76.5t94.5 -27.5t94.5 28zM816.5 27q-61.5 37 -95.5 102t-34 146q0 77 32 142.5t92.5 105.5t142.5 40q71 0 132 -32t98 -93.5t37 -147.5v-30h-395h-27.5t-37.5 2l-3 -16q9 -2 12.5 -6.5t6 -15t5.5 -19.5q21 -64 67.5 -102t105.5 -38
q60 0 103 32t62 81h91q-27 -84 -92 -136t-163 -52q-78 0 -139.5 37zM800.5 330.5q11.5 4.5 28.5 4.5h248q19 0 32 -4.5t25 -14.5l11 12q-10 7 -12.5 12.5t-4.5 14.5q-3 18 -10 34q-21 47 -64.5 73t-97.5 26q-55 0 -96.5 -26t-64.5 -73q-9 -19 -11 -34q-1 -9 -4 -14t-13 -13
l11 -12q11 10 22.5 14.5z" />
    <glyph glyph-name="Racute" unicode="&#x154;" horiz-adv-x="660" 
d="M79 763h284q113 0 177.5 -55.5t64.5 -162.5q0 -88 -48 -145q-41 -47 -84 -47q-6 0 -16 2l-6 -13q14 -7 20.5 -18t15.5 -30l128 -294h-98l-136 324h-210v-324h-92v763zM472 439.5q42 35.5 42 102.5q0 66 -43 102t-120 36h-180v-276h180q79 0 121 35.5zM275 821l117 152
h104l-143 -152h-78z" />
    <glyph glyph-name="racute" unicode="&#x155;" horiz-adv-x="363" 
d="M71 553h85v-36q0 -14 -2.5 -23.5t-9.5 -18.5l14 -9q34 51 75.5 74t103.5 23h4v-85h-29q-67 0 -107 -40q-49 -47 -49 -147v-291h-85v553zM123 611l117 152h104l-143 -152h-78z" />
    <glyph glyph-name="uni0156" unicode="&#x156;" horiz-adv-x="660" 
d="M79 763h284q113 0 177.5 -55.5t64.5 -162.5q0 -88 -48 -145q-41 -47 -84 -47q-6 0 -16 2l-6 -13q14 -7 20.5 -18t15.5 -30l128 -294h-98l-136 324h-210v-324h-92v763zM472 439.5q42 35.5 42 102.5q0 66 -43 102t-120 36h-180v-276h180q79 0 121 35.5zM352.5 -170
q19.5 11 19.5 31q0 6 -1 10h-10q-1 -8 -8 -13t-18 -5q-18 0 -30 13t-12 33q0 22 14 35.5t37 13.5q32 0 50.5 -20t18.5 -54q0 -40 -29.5 -62t-87.5 -22v29q37 0 56.5 11z" />
    <glyph glyph-name="uni0157" unicode="&#x157;" horiz-adv-x="363" 
d="M71 553h85v-36q0 -14 -2.5 -23.5t-9.5 -18.5l14 -9q34 51 75.5 74t103.5 23h4v-85h-29q-67 0 -107 -40q-49 -47 -49 -147v-291h-85v553zM122.5 -170q19.5 11 19.5 31q0 6 -1 10h-10q-1 -8 -8 -13t-18 -5q-18 0 -30 13t-12 33q0 22 14 35.5t37 13.5q32 0 50.5 -20
t18.5 -54q0 -40 -29.5 -62t-87.5 -22v29q37 0 56.5 11z" />
    <glyph glyph-name="Rcaron" unicode="&#x158;" horiz-adv-x="660" 
d="M79 763h284q113 0 177.5 -55.5t64.5 -162.5q0 -88 -48 -145q-41 -47 -84 -47q-6 0 -16 2l-6 -13q14 -7 20.5 -18t15.5 -30l128 -294h-98l-136 324h-210v-324h-92v763zM472 439.5q42 35.5 42 102.5q0 66 -43 102t-120 36h-180v-276h180q79 0 121 35.5zM152 974h98l35 -43
q14 -18 21.5 -31.5t7.5 -25.5h14q0 12 7.5 25.5t21.5 31.5l35 43h98l-162 -170h-14z" />
    <glyph glyph-name="rcaron" unicode="&#x159;" horiz-adv-x="363" 
d="M71 553h85v-36q0 -14 -2.5 -23.5t-9.5 -18.5l14 -9q34 51 75.5 74t103.5 23h4v-85h-29q-67 0 -107 -40q-49 -47 -49 -147v-291h-85v553zM0 764h98l35 -43q14 -18 21.5 -31.5t7.5 -25.5h14q0 12 7.5 25.5t21.5 31.5l35 43h98l-162 -170h-14z" />
    <glyph glyph-name="Sacute" unicode="&#x15a;" horiz-adv-x="673" 
d="M146.5 50q-86.5 60 -104.5 181h93q17 -84 79.5 -121.5t144.5 -37.5t126.5 34t44.5 101q0 51 -28 80.5t-70 44t-113 29.5q-80 17 -129 34.5t-83 57.5t-34 110q0 64 31.5 111.5t88 73t130.5 25.5q105 0 182 -54.5t95 -165.5h-89q-15 73 -67 105.5t-122 32.5
q-76 0 -116.5 -32t-40.5 -88q0 -44 25.5 -69.5t64 -38.5t105.5 -27q85 -18 137 -37.5t88.5 -63.5t36.5 -122q0 -103 -69.5 -163t-197.5 -60q-122 0 -208.5 60zM290 821l117 152h104l-143 -152h-78z" />
    <glyph glyph-name="sacute" unicode="&#x15b;" horiz-adv-x="557" 
d="M123 40q-66 50 -80 138h89q11 -53 51.5 -83t111.5 -30q58 0 92.5 22t34.5 63q0 32 -20.5 51.5t-52 29.5t-83.5 20q-65 13 -104.5 26.5t-67.5 43.5t-28 83q0 75 56.5 117t144.5 42q90 0 150 -47t74 -129h-79q-12 51 -50 76t-95 25q-55 0 -85.5 -20.5t-30.5 -56.5
q0 -28 19 -44t47 -24.5t79 -18.5q67 -13 109 -27.5t72 -47t30 -90.5q0 -78 -56 -123.5t-157 -45.5q-105 0 -171 50zM233 611l117 152h104l-143 -152h-78z" />
    <glyph glyph-name="Scedilla" unicode="&#x15e;" horiz-adv-x="673" 
d="M304 -50l7 -9q24 3 38 3q23 0 38 -6q59 -19 59 -72q0 -41 -34 -63.5t-89 -22.5q-46 0 -92 13v37q48 -18 88 -18q34 0 54 13.5t20 38.5q0 35 -37 48.5t-109 11.5l54 69q-103 13 -173 72t-86 166h93q17 -84 79.5 -121.5t144.5 -37.5t126.5 34t44.5 101q0 51 -28 80.5
t-70 44t-113 29.5q-80 17 -129 34.5t-83 57.5t-34 110q0 64 31.5 111.5t88 73t130.5 25.5q105 0 182 -54.5t95 -165.5h-89q-15 73 -67 105.5t-122 32.5q-76 0 -116.5 -32t-40.5 -88q0 -44 25.5 -69.5t64 -38.5t105.5 -27q85 -18 137 -37.5t88.5 -63.5t36.5 -122
q0 -103 -69.5 -163t-197.5 -60h-5q-19 -21 -46 -40z" />
    <glyph glyph-name="scedilla" unicode="&#x15f;" horiz-adv-x="557" 
d="M247 -50l7 -9q24 3 38 3q23 0 38 -6q59 -19 59 -72q0 -41 -34 -63.5t-89 -22.5q-46 0 -92 13v37q48 -18 88 -18q34 0 54 13.5t20 38.5q0 35 -37 48.5t-109 11.5l54 69q-84 12 -136 60t-65 125h89q11 -53 51.5 -83t111.5 -30q58 0 92.5 22t34.5 63q0 32 -20.5 51.5
t-52 29.5t-83.5 20q-65 13 -104.5 26.5t-67.5 43.5t-28 83q0 75 56.5 117t144.5 42q90 0 150 -47t74 -129h-79q-12 51 -50 76t-95 25q-55 0 -85.5 -20.5t-30.5 -56.5q0 -28 19 -44t47 -24.5t79 -18.5q67 -13 109 -27.5t72 -47t30 -90.5q0 -78 -56 -123.5t-157 -45.5h-1
q-19 -21 -46 -40z" />
    <glyph glyph-name="Scaron" unicode="&#x160;" horiz-adv-x="673" 
d="M146.5 50q-86.5 60 -104.5 181h93q17 -84 79.5 -121.5t144.5 -37.5t126.5 34t44.5 101q0 51 -28 80.5t-70 44t-113 29.5q-80 17 -129 34.5t-83 57.5t-34 110q0 64 31.5 111.5t88 73t130.5 25.5q105 0 182 -54.5t95 -165.5h-89q-15 73 -67 105.5t-122 32.5
q-76 0 -116.5 -32t-40.5 -88q0 -44 25.5 -69.5t64 -38.5t105.5 -27q85 -18 137 -37.5t88.5 -63.5t36.5 -122q0 -103 -69.5 -163t-197.5 -60q-122 0 -208.5 60zM167 974h98l35 -43q14 -18 21.5 -31.5t7.5 -25.5h14q0 12 7.5 25.5t21.5 31.5l35 43h98l-162 -170h-14z" />
    <glyph glyph-name="scaron" unicode="&#x161;" horiz-adv-x="557" 
d="M123 40q-66 50 -80 138h89q11 -53 51.5 -83t111.5 -30q58 0 92.5 22t34.5 63q0 32 -20.5 51.5t-52 29.5t-83.5 20q-65 13 -104.5 26.5t-67.5 43.5t-28 83q0 75 56.5 117t144.5 42q90 0 150 -47t74 -129h-79q-12 51 -50 76t-95 25q-55 0 -85.5 -20.5t-30.5 -56.5
q0 -28 19 -44t47 -24.5t79 -18.5q67 -13 109 -27.5t72 -47t30 -90.5q0 -78 -56 -123.5t-157 -45.5q-105 0 -171 50zM110 764h98l35 -43q14 -18 21.5 -31.5t7.5 -25.5h14q0 12 7.5 25.5t21.5 31.5l35 43h98l-162 -170h-14z" />
    <glyph glyph-name="uni0162" unicode="&#x162;" horiz-adv-x="637" 
d="M287 -50l7 -9q24 3 38 3q23 0 38 -6q59 -19 59 -72q0 -41 -34 -63.5t-89 -22.5q-46 0 -92 13v37q48 -18 88 -18q34 0 54 13.5t20 38.5q0 35 -37 48.5t-109 11.5l59 76h-17v680h-258v83h609v-83h-259v-680h-22q-30 -33 -55 -50z" />
    <glyph glyph-name="uni0163" unicode="&#x163;" horiz-adv-x="361" 
d="M201 478v-322q0 -29 4 -45.5t18 -26t44 -9.5h57v-75h-77q-13 0 -19 1q-20 -25 -55 -51l7 -9q24 3 38 3q23 0 38 -6q59 -19 59 -72q0 -41 -34 -63.5t-89 -22.5q-47 0 -92 13v37q48 -18 88 -18q34 0 54 13.5t20 38.5q0 35 -37 48.5t-109 11.5l66 85q-33 12 -49.5 42.5
t-16.5 87.5v339h-89v75h89v210h85v-210h124v-75h-124z" />
    <glyph glyph-name="Tcaron" unicode="&#x164;" horiz-adv-x="637" 
d="M272 0v680h-258v83h609v-83h-259v-680h-92zM150 974h98l35 -43q14 -18 21.5 -31.5t7.5 -25.5h14q0 12 7.5 25.5t21.5 31.5l35 43h98l-162 -170h-14z" />
    <glyph glyph-name="tcaron" unicode="&#x165;" horiz-adv-x="361" 
d="M148 30q-32 30 -32 109v339h-89v75h89v210h85v-210h124v-75h-124v-322q0 -29 4 -45.5t18 -26t44 -9.5h57v-75h-77q-67 0 -99 30zM349 712q25 29 25 72q0 15 -3 30h-12q-1 -11 -10.5 -16.5t-22.5 -5.5q-22 0 -37 15.5t-15 41.5q0 27 17.5 44t46.5 17q39 0 62.5 -32
t23.5 -84q0 -61 -36.5 -108t-109.5 -55v45q46 7 71 36z" />
    <glyph glyph-name="Umacron" unicode="&#x16a;" horiz-adv-x="711" 
d="M143 62q-71 72 -71 202v499h92v-499q0 -92 47 -142t144 -50t144 50t47 142v499h92v-499q0 -130 -71 -202t-212 -72t-212 72zM207 870v43h296v-43h-296z" />
    <glyph glyph-name="umacron" unicode="&#x16b;" horiz-adv-x="578" 
d="M95 77q-17 33 -21.5 67.5t-4.5 75.5v333h85v-333q0 -88 32 -124q28 -31 85 -31q63 0 101 41q27 28 38.5 77t11.5 134v236h85v-553h-85v36q0 14 2.5 23.5t9.5 18.5l-14 9q-38 -52 -75 -74.5t-87 -22.5q-117 0 -163 87zM141 660v43h296v-43h-296z" />
    <glyph glyph-name="Uring" unicode="&#x16e;" horiz-adv-x="711" 
d="M143 62q-71 72 -71 202v499h92v-499q0 -92 47 -142t144 -50t144 50t47 142v499h92v-499q0 -130 -71 -202t-212 -72t-212 72zM270.5 826.5q-34.5 35.5 -34.5 83.5q0 49 34.5 83.5t83.5 34.5t84.5 -34t35.5 -84q0 -49 -35 -84t-85 -35q-49 0 -83.5 35.5zM395 869.5
q16 16.5 16 42.5q0 23 -15.5 39t-41.5 16q-24 0 -40 -16t-16 -39q0 -25 16.5 -42t39.5 -17q25 0 41 16.5z" />
    <glyph glyph-name="uring" unicode="&#x16f;" horiz-adv-x="578" 
d="M95 77q-17 33 -21.5 67.5t-4.5 75.5v333h85v-333q0 -88 32 -124q28 -31 85 -31q63 0 101 41q27 28 38.5 77t11.5 134v236h85v-553h-85v36q0 14 2.5 23.5t9.5 18.5l-14 9q-38 -52 -75 -74.5t-87 -22.5q-117 0 -163 87zM204.5 616.5q-34.5 35.5 -34.5 83.5q0 49 34.5 83.5
t83.5 34.5t84.5 -34t35.5 -84q0 -49 -35 -84t-85 -35q-49 0 -83.5 35.5zM329 659.5q16 16.5 16 42.5q0 23 -15.5 39t-41.5 16q-24 0 -40 -16t-16 -39q0 -25 16.5 -42t39.5 -17q25 0 41 16.5z" />
    <glyph glyph-name="Uhungarumlaut" unicode="&#x170;" horiz-adv-x="711" 
d="M143 62q-71 72 -71 202v499h92v-499q0 -92 47 -142t144 -50t144 50t47 142v499h92v-499q0 -130 -71 -202t-212 -72t-212 72zM225 821l116 152h105l-143 -152h-78zM407 821l118 152h110l-149 -152h-79z" />
    <glyph glyph-name="uhungarumlaut" unicode="&#x171;" horiz-adv-x="578" 
d="M95 77q-17 33 -21.5 67.5t-4.5 75.5v333h85v-333q0 -88 32 -124q28 -31 85 -31q63 0 101 41q27 28 38.5 77t11.5 134v236h85v-553h-85v36q0 14 2.5 23.5t9.5 18.5l-14 9q-38 -52 -75 -74.5t-87 -22.5q-117 0 -163 87zM159 611l116 152h105l-143 -152h-78zM341 611
l118 152h110l-149 -152h-79z" />
    <glyph glyph-name="Uogonek" unicode="&#x172;" horiz-adv-x="711" 
d="M638 763v-499q0 -110 -50.5 -179t-152.5 -88l-24 -22q-36 -34 -49 -51t-13 -39q0 -23 14 -36.5t39 -13.5q19 0 36 6v-54q-28 -7 -51 -7q-46 0 -74.5 25t-28.5 67q0 37 25 64t79 49v6q-11 -1 -33 -1q-141 0 -212 72t-71 202v499h92v-499q0 -92 47 -142t144 -50t144 50
t47 142v499h92z" />
    <glyph glyph-name="uogonek" unicode="&#x173;" horiz-adv-x="578" 
d="M481 -24q-37 -34 -50 -51t-13 -40t14 -36.5t39 -13.5q19 0 36 6v-54q-28 -7 -51 -7q-46 0 -74.5 25t-28.5 67q0 37 25 64t79 49v15h-35v36q0 14 2.5 23.5t9.5 18.5l-14 9q-38 -52 -75 -74.5t-87 -22.5q-117 0 -163 87q-17 33 -21.5 67.5t-4.5 75.5v333h85v-333
q0 -88 32 -124q28 -31 85 -31q63 0 101 41q27 28 38.5 77t11.5 134v236h85v-553q-10 -10 -26 -24z" />
    <glyph glyph-name="Wcircumflex" unicode="&#x174;" horiz-adv-x="1074" 
d="M20 763h96l162 -543q12 -38 15.5 -55t3.5 -33h16q0 16 4 34t14 54l162 543h88l162 -543q10 -36 14 -54t4 -34h16q0 16 3.5 33t15.5 55l162 543h96l-226 -763h-104l-169 553q-10 34 -10 69h-16q0 -35 -10 -69l-169 -553h-104zM529 998h14l162 -170h-98l-35 43
q-14 18 -21.5 31.5t-7.5 25.5h-14q0 -12 -7.5 -25.5t-21.5 -31.5l-35 -43h-98z" />
    <glyph glyph-name="wcircumflex" unicode="&#x175;" horiz-adv-x="820" 
d="M25 553h91l99 -355q5 -19 7 -36.5t3 -30t1 -18.5h13q0 5 1 23t4 32.5t8 29.5l119 355h77l119 -355q7 -21 9 -37.5t4 -47.5h13q0 6 1 24t3.5 32t6.5 29l100 355h91l-164 -553h-79l-123 375q-7 21 -9 36t-4 43h-12q-2 -28 -4 -43t-9 -36l-125 -375h-79zM403 788h14
l162 -170h-98l-35 43q-14 18 -21.5 31.5t-7.5 25.5h-14q0 -12 -7.5 -25.5t-21.5 -31.5l-35 -43h-98z" />
    <glyph glyph-name="Ycircumflex" unicode="&#x176;" horiz-adv-x="674" 
d="M290 292l-286 471h107l187 -315q19 -32 25 -46t6 -38h16q0 24 6.5 39.5t24.5 45.5l188 314h105l-283 -471v-292h-96v292zM330 998h14l162 -170h-98l-35 43q-14 18 -21.5 31.5t-7.5 25.5h-14q0 -12 -7.5 -25.5t-21.5 -31.5l-35 -43h-98z" />
    <glyph glyph-name="ycircumflex" unicode="&#x177;" horiz-adv-x="549" 
d="M71 -132h52q25 0 38 3.5t23 15.5t20 39l30 82l-216 545h94l146 -373q6 -15 9 -29.5t6 -30.5h13q4 33 14 60l136 373h92l-245 -664q-22 -59 -50 -79t-80 -20h-82v78zM267 788h14l162 -170h-98l-35 43q-14 18 -21.5 31.5t-7.5 25.5h-14q0 -12 -7.5 -25.5t-21.5 -31.5
l-35 -43h-98z" />
    <glyph glyph-name="Ydieresis" unicode="&#x178;" horiz-adv-x="674" 
d="M290 292l-286 471h107l187 -315q19 -32 25 -46t6 -38h16q0 24 6.5 39.5t24.5 45.5l188 314h105l-283 -471v-292h-96v292zM195.5 827.5q-17.5 16.5 -17.5 40.5t17.5 41t41.5 17q23 0 40.5 -17t17.5 -41q0 -23 -17.5 -40t-40.5 -17q-24 0 -41.5 16.5zM395.5 827.5
q-17.5 16.5 -17.5 40.5t17.5 41t41.5 17q23 0 40.5 -17t17.5 -41q0 -23 -17.5 -40t-40.5 -17q-24 0 -41.5 16.5z" />
    <glyph glyph-name="Zacute" unicode="&#x179;" horiz-adv-x="634" 
d="M29 67l414 554q25 34 45 57l-6 12q-21 -7 -38 -8.5t-39 -1.5h-352v83h549v-69l-404 -543q-21 -29 -52 -66l6 -12q23 7 41.5 8.5t43.5 1.5h364v-83h-572v67zM272 821l117 152h104l-143 -152h-78z" />
    <glyph glyph-name="zacute" unicode="&#x17a;" horiz-adv-x="533" 
d="M34 72l297 335q19 22 34.5 38t41.5 37l-6 12q-18 -9 -33.5 -12.5t-36.5 -3.5h-278v75h444v-80l-289 -326q-21 -25 -35.5 -40t-40.5 -36l6 -12q18 9 33.5 12.5t36.5 3.5h286v-75h-460v72zM222 611l117 152h104l-143 -152h-78z" />
    <glyph glyph-name="Zdotaccent" unicode="&#x17b;" horiz-adv-x="634" 
d="M29 67l414 554q25 34 45 57l-6 12q-21 -7 -38 -8.5t-39 -1.5h-352v83h549v-69l-404 -543q-21 -29 -52 -66l6 -12q23 7 41.5 8.5t43.5 1.5h364v-83h-572v67zM276.5 827.5q-17.5 16.5 -17.5 40.5t17.5 41t41.5 17q23 0 40.5 -17t17.5 -41q0 -23 -17.5 -40t-40.5 -17
q-24 0 -41.5 16.5z" />
    <glyph glyph-name="zdotaccent" unicode="&#x17c;" horiz-adv-x="533" 
d="M34 72l297 335q19 22 34.5 38t41.5 37l-6 12q-18 -9 -33.5 -12.5t-36.5 -3.5h-278v75h444v-80l-289 -326q-21 -25 -35.5 -40t-40.5 -36l6 -12q18 9 33.5 12.5t36.5 3.5h286v-75h-460v72zM222 666.5q-19 18.5 -19 44.5t19 44t46 18t46 -18t19 -44t-19 -44.5t-46 -18.5
t-46 18.5z" />
    <glyph glyph-name="Zcaron" unicode="&#x17d;" horiz-adv-x="634" 
d="M29 67l414 554q25 34 45 57l-6 12q-21 -7 -38 -8.5t-39 -1.5h-352v83h549v-69l-404 -543q-21 -29 -52 -66l6 -12q23 7 41.5 8.5t43.5 1.5h364v-83h-572v67zM149 974h98l35 -43q14 -18 21.5 -31.5t7.5 -25.5h14q0 12 7.5 25.5t21.5 31.5l35 43h98l-162 -170h-14z" />
    <glyph glyph-name="zcaron" unicode="&#x17e;" horiz-adv-x="533" 
d="M34 72l297 335q19 22 34.5 38t41.5 37l-6 12q-18 -9 -33.5 -12.5t-36.5 -3.5h-278v75h444v-80l-289 -326q-21 -25 -35.5 -40t-40.5 -36l6 -12q18 9 33.5 12.5t36.5 3.5h286v-75h-460v72zM99 764h98l35 -43q14 -18 21.5 -31.5t7.5 -25.5h14q0 12 7.5 25.5t21.5 31.5l35 43
h98l-162 -170h-14z" />
    <glyph glyph-name="florin" unicode="&#x192;" horiz-adv-x="454" 
d="M63 -135h48q37 0 56.5 21t19.5 71v521h-124v75h124v63q0 147 139 147h70v-75h-51q-38 0 -55.5 -18t-17.5 -67v-50h124v-75h-124v-541q0 -73 -36 -110t-106 -37h-67v75z" />
    <glyph glyph-name="Oslashacute" unicode="&#x1fe;" horiz-adv-x="811" 
d="M743.5 513.5q16.5 -62.5 16.5 -131.5q0 -108 -39.5 -197t-120 -142t-196.5 -53q-79 0 -141.5 25.5t-107.5 71.5l-59 -59l-45 45l65 65q-33 50 -49.5 113t-16.5 131q0 107 39.5 196t119.5 142t195 53q156 0 250 -97l60 60l45 -46l-64 -64q32 -50 48.5 -112.5zM181 203
l410 410q-69 77 -187 77q-83 0 -142 -39.5t-89.5 -109t-30.5 -159.5q0 -104 39 -179zM547.5 112.5q59.5 39.5 90 109.5t30.5 160q0 105 -39 178l-411 -410q69 -77 186 -77q84 0 143.5 39.5zM359 821l117 152h104l-143 -152h-78z" />
    <glyph glyph-name="oslashacute" unicode="&#x1ff;" horiz-adv-x="639" 
d="M590 279q0 -83 -34.5 -148.5t-96.5 -103t-141 -37.5q-52 0 -97 16.5t-80 47.5l-39 -39l-45 45l42 42q-51 74 -51 177q0 81 34.5 146t96 101.5t139.5 36.5q103 0 178 -64l39 39l45 -46l-41 -41q51 -75 51 -172zM160 163l278 278q-50 47 -120 47q-52 0 -94.5 -27t-66.5 -75
t-24 -107q0 -64 27 -116zM412.5 93q42.5 28 67 76.5t24.5 109.5q0 60 -27 111l-278 -278q50 -47 119 -47q52 0 94.5 28zM273 611l117 152h104l-143 -152h-78z" />
    <glyph glyph-name="uni0218" unicode="&#x218;" horiz-adv-x="673" 
d="M146.5 50q-86.5 60 -104.5 181h93q17 -84 79.5 -121.5t144.5 -37.5t126.5 34t44.5 101q0 51 -28 80.5t-70 44t-113 29.5q-80 17 -129 34.5t-83 57.5t-34 110q0 64 31.5 111.5t88 73t130.5 25.5q105 0 182 -54.5t95 -165.5h-89q-15 73 -67 105.5t-122 32.5
q-76 0 -116.5 -32t-40.5 -88q0 -44 25.5 -69.5t64 -38.5t105.5 -27q85 -18 137 -37.5t88.5 -63.5t36.5 -122q0 -103 -69.5 -163t-197.5 -60q-122 0 -208.5 60zM344.5 -170q19.5 11 19.5 31q0 6 -1 10h-10q-1 -8 -8 -13t-18 -5q-18 0 -30 13t-12 33q0 22 14 35.5t37 13.5
q32 0 50.5 -20t18.5 -54q0 -40 -29.5 -62t-87.5 -22v29q37 0 56.5 11z" />
    <glyph glyph-name="uni0219" unicode="&#x219;" horiz-adv-x="557" 
d="M123 40q-66 50 -80 138h89q11 -53 51.5 -83t111.5 -30q58 0 92.5 22t34.5 63q0 32 -20.5 51.5t-52 29.5t-83.5 20q-65 13 -104.5 26.5t-67.5 43.5t-28 83q0 75 56.5 117t144.5 42q90 0 150 -47t74 -129h-79q-12 51 -50 76t-95 25q-55 0 -85.5 -20.5t-30.5 -56.5
q0 -28 19 -44t47 -24.5t79 -18.5q67 -13 109 -27.5t72 -47t30 -90.5q0 -78 -56 -123.5t-157 -45.5q-105 0 -171 50zM287.5 -170q19.5 11 19.5 31q0 6 -1 10h-10q-1 -8 -8 -13t-18 -5q-18 0 -30 13t-12 33q0 22 14 35.5t37 13.5q32 0 50.5 -20t18.5 -54q0 -40 -29.5 -62
t-87.5 -22v29q37 0 56.5 11z" />
    <glyph glyph-name="uni021A" unicode="&#x21a;" horiz-adv-x="637" 
d="M272 0v680h-258v83h609v-83h-259v-680h-92zM327.5 -170q19.5 11 19.5 31q0 6 -1 10h-10q-1 -8 -8 -13t-18 -5q-18 0 -30 13t-12 33q0 22 14 35.5t37 13.5q32 0 50.5 -20t18.5 -54q0 -40 -29.5 -62t-87.5 -22v29q37 0 56.5 11z" />
    <glyph glyph-name="uni021B" unicode="&#x21b;" horiz-adv-x="361" 
d="M148 30q-32 30 -32 109v339h-89v75h89v210h85v-210h124v-75h-124v-322q0 -29 4 -45.5t18 -26t44 -9.5h57v-75h-77q-67 0 -99 30zM213.5 -170q19.5 11 19.5 31q0 6 -1 10h-10q-1 -8 -8 -13t-18 -5q-18 0 -30 13t-12 33q0 22 14 35.5t37 13.5q32 0 50.5 -20t18.5 -54
q0 -40 -29.5 -62t-87.5 -22v29q37 0 56.5 11z" />
    <glyph glyph-name="uni0237" unicode="&#x237;" horiz-adv-x="228" 
d="M-58 -132h52q38 0 58 18t20 66v601h85v-612q0 -75 -36 -113t-107 -38h-72v78z" />
    <glyph glyph-name="circumflex" unicode="&#x2c6;" horiz-adv-x="366" 
d="M176 788h14l162 -170h-98l-35 43q-14 18 -21.5 31.5t-7.5 25.5h-14q0 -12 -7.5 -25.5t-21.5 -31.5l-35 -43h-98z" />
    <glyph glyph-name="caron" unicode="&#x2c7;" horiz-adv-x="366" 
d="M14 764h98l35 -43q14 -18 21.5 -31.5t7.5 -25.5h14q0 12 7.5 25.5t21.5 31.5l35 43h98l-162 -170h-14z" />
    <glyph glyph-name="breve" unicode="&#x2d8;" horiz-adv-x="362" 
d="M60.5 651.5q-41.5 39.5 -46.5 111.5h62q4 -44 32 -67t73 -23q44 0 71.5 23t31.5 67h64q-4 -70 -47.5 -110.5t-119.5 -40.5q-79 0 -120.5 39.5z" />
    <glyph glyph-name="dotaccent" unicode="&#x2d9;" horiz-adv-x="158" 
d="M33 666.5q-19 18.5 -19 44.5t19 44t46 18t46 -18t19 -44t-19 -44.5t-46 -18.5t-46 18.5z" />
    <glyph glyph-name="ring" unicode="&#x2da;" horiz-adv-x="266" 
d="M48.5 616.5q-34.5 35.5 -34.5 83.5q0 49 34.5 83.5t83.5 34.5t84.5 -34t35.5 -84q0 -49 -35 -84t-85 -35q-49 0 -83.5 35.5zM173 659.5q16 16.5 16 42.5q0 23 -15.5 39t-41.5 16q-24 0 -40 -16t-16 -39q0 -25 16.5 -42t39.5 -17q25 0 41 16.5z" />
    <glyph glyph-name="ogonek" unicode="&#x2db;" horiz-adv-x="182" 
d="M42.5 -195q-28.5 25 -28.5 67q0 37 25 64t79 49v15h50q-10 -10 -26 -24q-37 -34 -50 -51t-13 -40t14 -36.5t39 -13.5q19 0 36 6v-54q-28 -7 -51 -7q-46 0 -74.5 25z" />
    <glyph glyph-name="tilde" unicode="&#x2dc;" horiz-adv-x="387" 
d="M211.5 626.5q-20.5 13.5 -42.5 37.5q-14 16 -24 23.5t-22 7.5q-37 0 -42 -78h-67q3 71 33 111t80 40q30 0 49 -13t41 -37q16 -17 26 -24.5t23 -7.5q16 0 26 19.5t12 57.5h69q-5 -76 -30.5 -113t-77.5 -37q-33 0 -53.5 13.5z" />
    <glyph glyph-name="hungarumlaut" unicode="&#x2dd;" horiz-adv-x="438" 
d="M14 611l116 152h105l-143 -152h-78zM196 611l118 152h110l-149 -152h-79z" />
    <glyph glyph-name="gravecomb" unicode="&#x300;" 
d="M-14 611h-78l-143 152h104z" />
    <glyph glyph-name="acutecomb" unicode="&#x301;" 
d="M-235 611l117 152h104l-143 -152h-78z" />
    <glyph glyph-name="uni0302" unicode="&#x302;" 
d="M-190 788h14l162 -170h-98l-35 43q-14 18 -21.5 31.5t-7.5 25.5h-14q0 -12 -7.5 -25.5t-21.5 -31.5l-35 -43h-98z" />
    <glyph glyph-name="tildecomb" unicode="&#x303;" 
d="M-175.5 626.5q-20.5 13.5 -42.5 37.5q-14 16 -24 23.5t-22 7.5q-37 0 -42 -78h-67q3 71 33 111t80 40q30 0 49 -13t41 -37q16 -17 26 -24.5t23 -7.5q16 0 26 19.5t12 57.5h69q-5 -76 -30.5 -113t-77.5 -37q-33 0 -53.5 13.5z" />
    <glyph glyph-name="uni0304" unicode="&#x304;" 
d="M-310 660v43h296v-43h-296z" />
    <glyph glyph-name="uni0306" unicode="&#x306;" 
d="M-301.5 651.5q-41.5 39.5 -46.5 111.5h62q4 -44 32 -67t73 -23q44 0 71.5 23t31.5 67h64q-4 -70 -47.5 -110.5t-119.5 -40.5q-79 0 -120.5 39.5z" />
    <glyph glyph-name="uni0307" unicode="&#x307;" 
d="M-125 666.5q-19 18.5 -19 44.5t19 44t46 18t46 -18t19 -44t-19 -44.5t-46 -18.5t-46 18.5z" />
    <glyph glyph-name="uni0308" unicode="&#x308;" 
d="M-325 666.5q-19 18.5 -19 44.5t19 44t46 18t46 -18t19 -44t-19 -44.5t-46 -18.5t-46 18.5zM-125 666.5q-19 18.5 -19 44.5t19 44t46 18t46 -18t19 -44t-19 -44.5t-46 -18.5t-46 18.5z" />
    <glyph glyph-name="uni030A" unicode="&#x30a;" 
d="M-217.5 616.5q-34.5 35.5 -34.5 83.5q0 49 34.5 83.5t83.5 34.5t84.5 -34t35.5 -84q0 -49 -35 -84t-85 -35q-49 0 -83.5 35.5zM-93 659.5q16 16.5 16 42.5q0 23 -15.5 39t-41.5 16q-24 0 -40 -16t-16 -39q0 -25 16.5 -42t39.5 -17q25 0 41 16.5z" />
    <glyph glyph-name="uni030B" unicode="&#x30b;" 
d="M-424 611l116 152h105l-143 -152h-78zM-242 611l118 152h110l-149 -152h-79z" />
    <glyph glyph-name="uni030C" unicode="&#x30c;" 
d="M-352 764h98l35 -43q14 -18 21.5 -31.5t7.5 -25.5h14q0 12 7.5 25.5t21.5 31.5l35 43h98l-162 -170h-14z" />
    <glyph glyph-name="uni030F" unicode="&#x30f;" 
d="M-254 608l-114 135q-5 5 -5 10q0 4 4 7t10 3h42q12 0 19 -10l96 -135q4 -5 4 -10q0 -4 -3.5 -6.5t-10.5 -2.5h-22q-13 0 -20 9zM-71 608l-109 135q-4 4 -4 10q0 10 13 10h37q12 0 19 -10l97 -135q4 -4 4 -9q0 -10 -14 -10h-23q-14 0 -20 9z" />
    <glyph glyph-name="uni0312" unicode="&#x312;" 
d="M-74 622q-19 23 -19 60q0 44 29.5 77.5t88.5 39.5v-32q-37 -5 -57 -25.5t-20 -51.5q0 -15 2 -22h9q1 8 9 12t18 4q17 0 29.5 -11.5t12.5 -29.5q0 -19 -14 -31.5t-38 -12.5q-31 0 -50 23z" />
    <glyph glyph-name="uni031B" unicode="&#x31b;" 
d="M-68 705v42q0 16 16 16h22q16 0 16 -16v-37q0 -78 -36.5 -121.5t-112.5 -43.5v47q95 0 95 113z" />
    <glyph glyph-name="uni0326" unicode="&#x326;" 
d="M-74.5 -170q19.5 11 19.5 31q0 6 -1 10h-10q-1 -8 -8 -13t-18 -5q-18 0 -30 13t-12 33q0 22 14 35.5t37 13.5q32 0 50.5 -20t18.5 -54q0 -40 -29.5 -62t-87.5 -22v29q37 0 56.5 11z" />
    <glyph glyph-name="uni0327" unicode="&#x327;" 
d="M-229 -207v37q48 -18 88 -18q34 0 54 13.5t20 38.5q0 35 -37 48.5t-109 11.5l70 90h54q-4 -4 -20 -23t-47 -41l7 -9q24 3 38 3q23 0 38 -6q59 -19 59 -72q0 -41 -34 -63.5t-89 -22.5q-47 0 -92 13z" />
    <glyph glyph-name="uni0328" unicode="&#x328;" 
d="M-139.5 -195q-28.5 25 -28.5 67q0 37 25 64t79 49v15h50q-10 -10 -26 -24q-37 -34 -50 -51t-13 -40t14 -36.5t39 -13.5q19 0 36 6v-54q-28 -7 -51 -7q-46 0 -74.5 25z" />
    <glyph glyph-name="uni0337" unicode="&#x337;" 
d="M-234 277v60l220 114v-60z" />
    <glyph glyph-name="uni0338" unicode="&#x338;" 
d="M-492 28l-45 45l478 478l45 -46z" />
    <glyph glyph-name="uni0394" unicode="&#x394;" horiz-adv-x="694" 
d="M14 0l281 763h104l281 -763h-666zM218 85h258q37 0 80 -13l8 11q-19 35 -34 78l-157 437q-9 26 -13.5 43t-4.5 38h-16q0 -21 -4.5 -38t-13.5 -43l-157 -437q-15 -43 -34 -78l8 -11q43 13 80 13z" />
    <glyph glyph-name="pi" unicode="&#x3c0;" horiz-adv-x="576" 
d="M98 478h-77v75h524v-75h-102v-315q0 -39 4.5 -57t17 -24.5t40.5 -6.5h40v-75h-56q-67 0 -99 29.5t-32 106.5v342h-175v-478h-85v478z" />
    <glyph glyph-name="Wgrave" unicode="&#x1e80;" horiz-adv-x="1074" 
d="M20 763h96l162 -543q12 -38 15.5 -55t3.5 -33h16q0 16 4 34t14 54l162 543h88l162 -543q10 -36 14 -54t4 -34h16q0 16 3.5 33t15.5 55l162 543h96l-226 -763h-104l-169 553q-10 34 -10 69h-16q0 -35 -10 -69l-169 -553h-104zM582 821h-78l-143 152h104z" />
    <glyph glyph-name="wgrave" unicode="&#x1e81;" horiz-adv-x="820" 
d="M25 553h91l99 -355q5 -19 7 -36.5t3 -30t1 -18.5h13q0 5 1 23t4 32.5t8 29.5l119 355h77l119 -355q7 -21 9 -37.5t4 -47.5h13q0 6 1 24t3.5 32t6.5 29l100 355h91l-164 -553h-79l-123 375q-7 21 -9 36t-4 43h-12q-2 -28 -4 -43t-9 -36l-125 -375h-79zM456 611h-78
l-143 152h104z" />
    <glyph glyph-name="Wacute" unicode="&#x1e82;" horiz-adv-x="1074" 
d="M20 763h96l162 -543q12 -38 15.5 -55t3.5 -33h16q0 16 4 34t14 54l162 543h88l162 -543q10 -36 14 -54t4 -34h16q0 16 3.5 33t15.5 55l162 543h96l-226 -763h-104l-169 553q-10 34 -10 69h-16q0 -35 -10 -69l-169 -553h-104zM490 821l117 152h104l-143 -152h-78z" />
    <glyph glyph-name="wacute" unicode="&#x1e83;" horiz-adv-x="820" 
d="M25 553h91l99 -355q5 -19 7 -36.5t3 -30t1 -18.5h13q0 5 1 23t4 32.5t8 29.5l119 355h77l119 -355q7 -21 9 -37.5t4 -47.5h13q0 6 1 24t3.5 32t6.5 29l100 355h91l-164 -553h-79l-123 375q-7 21 -9 36t-4 43h-12q-2 -28 -4 -43t-9 -36l-125 -375h-79zM364 611l117 152
h104l-143 -152h-78z" />
    <glyph glyph-name="Wdieresis" unicode="&#x1e84;" horiz-adv-x="1074" 
d="M20 763h96l162 -543q12 -38 15.5 -55t3.5 -33h16q0 16 4 34t14 54l162 543h88l162 -543q10 -36 14 -54t4 -34h16q0 16 3.5 33t15.5 55l162 543h96l-226 -763h-104l-169 553q-10 34 -10 69h-16q0 -35 -10 -69l-169 -553h-104zM394.5 827.5q-17.5 16.5 -17.5 40.5t17.5 41
t41.5 17q23 0 40.5 -17t17.5 -41q0 -23 -17.5 -40t-40.5 -17q-24 0 -41.5 16.5zM594.5 827.5q-17.5 16.5 -17.5 40.5t17.5 41t41.5 17q23 0 40.5 -17t17.5 -41q0 -23 -17.5 -40t-40.5 -17q-24 0 -41.5 16.5z" />
    <glyph glyph-name="wdieresis" unicode="&#x1e85;" horiz-adv-x="820" 
d="M25 553h91l99 -355q5 -19 7 -36.5t3 -30t1 -18.5h13q0 5 1 23t4 32.5t8 29.5l119 355h77l119 -355q7 -21 9 -37.5t4 -47.5h13q0 6 1 24t3.5 32t6.5 29l100 355h91l-164 -553h-79l-123 375q-7 21 -9 36t-4 43h-12q-2 -28 -4 -43t-9 -36l-125 -375h-79zM264 666.5
q-19 18.5 -19 44.5t19 44t46 18t46 -18t19 -44t-19 -44.5t-46 -18.5t-46 18.5zM464 666.5q-19 18.5 -19 44.5t19 44t46 18t46 -18t19 -44t-19 -44.5t-46 -18.5t-46 18.5z" />
    <glyph glyph-name="uni1E9E" unicode="&#x1e9e;" horiz-adv-x="690" 
d="M164 722q64 51 173 51q76 0 131.5 -24t109.5 -74v-75l-104 -103q-31 -31 -66 -55l5 -14q24 4 36 4q22 0 48 -7q65 -17 103.5 -74t38.5 -136q0 -120 -79.5 -167.5t-181.5 -47.5h-107v83h97q68 0 123.5 24.5t55.5 113.5q0 90 -49 114.5t-110 24.5h-48v121l103 101
q21 21 39.5 29.5t40.5 8.5v16q-12 0 -22.5 4t-22.5 11.5t-20 11.5q-52 27 -121 27q-74 0 -116 -36q-24 -21 -37 -56.5t-13 -90.5v-507h-92v507q0 149 85 215z" />
    <glyph glyph-name="Ygrave" unicode="&#x1ef2;" horiz-adv-x="674" 
d="M290 292l-286 471h107l187 -315q19 -32 25 -46t6 -38h16q0 24 6.5 39.5t24.5 45.5l188 314h105l-283 -471v-292h-96v292zM383 821h-78l-143 152h104z" />
    <glyph glyph-name="ygrave" unicode="&#x1ef3;" horiz-adv-x="549" 
d="M71 -132h52q25 0 38 3.5t23 15.5t20 39l30 82l-216 545h94l146 -373q6 -15 9 -29.5t6 -30.5h13q4 33 14 60l136 373h92l-245 -664q-22 -59 -50 -79t-80 -20h-82v78zM320 611h-78l-143 152h104z" />
    <glyph glyph-name="endash" unicode="&#x2013;" horiz-adv-x="545" 
d="M22 302v64h501v-64h-501z" />
    <glyph glyph-name="emdash" unicode="&#x2014;" horiz-adv-x="1106" 
d="M0 302v64h1106v-64h-1106z" />
    <glyph glyph-name="uni2015" unicode="&#x2015;" horiz-adv-x="795" 
d="M70 310v54h655v-54h-655z" />
    <glyph glyph-name="quoteleft" unicode="&#x2018;" horiz-adv-x="288" 
d="M88.5 525q-23.5 32 -23.5 84q0 61 36.5 108t109.5 55v-45q-46 -7 -71 -36t-25 -72q0 -15 3 -30h12q1 11 10.5 16.5t22.5 5.5q22 0 37 -15.5t15 -41.5q0 -27 -17.5 -44t-46.5 -17q-39 0 -62.5 32z" />
    <glyph glyph-name="quoteright" unicode="&#x2019;" horiz-adv-x="289" 
d="M148 575q25 29 25 72q0 15 -3 30h-12q-1 -11 -10.5 -16.5t-22.5 -5.5q-22 0 -37 15.5t-15 41.5q0 27 17.5 44t46.5 17q39 0 62.5 -32t23.5 -84q0 -61 -36.5 -108t-109.5 -55v45q46 7 71 36z" />
    <glyph glyph-name="quotesinglbase" unicode="&#x201a;" horiz-adv-x="270" 
d="M135 -90q25 29 25 72q0 15 -3 30h-12q-1 -11 -10.5 -16.5t-22.5 -5.5q-22 0 -37 15.5t-15 41.5q0 27 17.5 44t46.5 17q39 0 62.5 -32t23.5 -84q0 -61 -36.5 -108t-109.5 -55v45q46 7 71 36z" />
    <glyph glyph-name="quotedblleft" unicode="&#x201c;" horiz-adv-x="485" 
d="M140 690q-25 -29 -25 -72q0 -15 3 -30h12q1 11 10.5 16.5t22.5 5.5q22 0 37 -15.5t15 -41.5q0 -27 -17.5 -44t-46.5 -17q-39 0 -62.5 32t-23.5 84q0 61 36.5 108t109.5 55v-45q-46 -7 -71 -36zM337 690q-25 -29 -25 -72q0 -15 3 -30h12q1 11 10.5 16.5t22.5 5.5
q22 0 37 -15.5t15 -41.5q0 -27 -17.5 -44t-46.5 -17q-39 0 -62.5 32t-23.5 84q0 61 36.5 108t109.5 55v-45q-46 -7 -71 -36z" />
    <glyph glyph-name="quotedblright" unicode="&#x201d;" horiz-adv-x="486" 
d="M148 575q25 29 25 72q0 15 -3 30h-12q-1 -11 -10.5 -16.5t-22.5 -5.5q-22 0 -37 15.5t-15 41.5q0 27 17.5 44t46.5 17q39 0 62.5 -32t23.5 -84q0 -61 -36.5 -108t-109.5 -55v45q46 7 71 36zM345 575q25 29 25 72q0 15 -3 30h-12q-1 -11 -10.5 -16.5t-22.5 -5.5
q-22 0 -37 15.5t-15 41.5q0 27 17.5 44t46.5 17q39 0 62.5 -32t23.5 -84q0 -61 -36.5 -108t-109.5 -55v45q46 7 71 36z" />
    <glyph glyph-name="quotedblbase" unicode="&#x201e;" horiz-adv-x="467" 
d="M135 -90q25 29 25 72q0 15 -3 30h-12q-1 -11 -10.5 -16.5t-22.5 -5.5q-22 0 -37 15.5t-15 41.5q0 27 17.5 44t46.5 17q39 0 62.5 -32t23.5 -84q0 -61 -36.5 -108t-109.5 -55v45q46 7 71 36zM332 -90q25 29 25 72q0 15 -3 30h-12q-1 -11 -10.5 -16.5t-22.5 -5.5
q-22 0 -37 15.5t-15 41.5q0 27 17.5 44t46.5 17q39 0 62.5 -32t23.5 -84q0 -61 -36.5 -108t-109.5 -55v45q46 7 71 36z" />
    <glyph glyph-name="dagger" unicode="&#x2020;" horiz-adv-x="633" 
d="M281 -210v660h-242v71h242v242h71v-242h242v-71h-242v-660h-71z" />
    <glyph glyph-name="bullet" unicode="&#x2022;" horiz-adv-x="415" 
d="M143.5 149q-29.5 17 -47 46.5t-17.5 64.5t17.5 64.5t47 46.5t63.5 17q35 0 64.5 -17t47 -46.5t17.5 -64.5t-17.5 -64.5t-47 -46.5t-64.5 -17q-34 0 -63.5 17z" />
    <glyph glyph-name="uni2023" unicode="&#x2023;" horiz-adv-x="428" 
d="M111 110v325l284 -162z" />
    <glyph glyph-name="ellipsis" unicode="&#x2026;" horiz-adv-x="684" 
d="M78 7q-18 17 -18 42q0 24 18 41.5t43 17.5q23 0 40 -17.5t17 -41.5t-17 -41.5t-40 -17.5q-25 0 -43 17zM300.5 7.5q-17.5 17.5 -17.5 41.5t17.5 41.5t42.5 17.5q24 0 41.5 -17.5t17.5 -41.5t-17.5 -41.5t-41.5 -17.5q-25 0 -42.5 17.5zM523.5 7q-17.5 17 -17.5 42
q0 24 17.5 41.5t42.5 17.5q23 0 40.5 -17.5t17.5 -41.5t-17 -41.5t-41 -17.5q-25 0 -42.5 17z" />
    <glyph glyph-name="perthousand" unicode="&#x2030;" horiz-adv-x="1132" 
d="M123.5 448q-34.5 24 -53 64t-18.5 87t18 86.5t52 63.5t79 24q42 0 76 -23t53.5 -63t19.5 -88q0 -49 -19 -89t-52.5 -63t-74.5 -23q-46 0 -80.5 24zM130 0l445 763h82l-445 -763h-82zM260 524q22 30 22 75q0 44 -22.5 75t-58.5 31q-38 0 -59 -30.5t-21 -75.5t21.5 -75
t61.5 -30q34 0 56 30zM509.5 13.5q-34.5 23.5 -53 63.5t-18.5 87t18 87t52 63.5t79 23.5q42 0 76 -23t53.5 -63t19.5 -89t-19 -88.5t-52.5 -62t-74.5 -22.5q-46 0 -80.5 23.5zM853.5 13.5q-34.5 23.5 -53 63.5t-18.5 87t18 87t52 63.5t79 23.5q42 0 76 -23t53.5 -63
t19.5 -89t-19 -88.5t-52.5 -62t-74.5 -22.5q-46 0 -80.5 23.5zM646 88q22 30 22 75t-22 75.5t-59 30.5q-38 0 -58.5 -30t-20.5 -75q0 -46 21 -76t61 -30q34 0 56 30zM990 88q22 30 22 75t-22 75.5t-59 30.5q-38 0 -58.5 -30t-20.5 -75q0 -46 21 -76t61 -30q34 0 56 30z" />
    <glyph glyph-name="guilsinglleft" unicode="&#x2039;" horiz-adv-x="306" 
d="M21 276l217 186v-75l-79 -68q-27 -23 -63 -36v-14q34 -12 63 -37l79 -67v-75z" />
    <glyph glyph-name="guilsinglright" unicode="&#x203a;" horiz-adv-x="306" 
d="M68 165l79 67q29 25 63 37v14q-36 13 -63 36l-79 68v75l217 -186l-217 -186v75z" />
    <glyph glyph-name="fraction" unicode="&#x2044;" horiz-adv-x="154" 
d="M-162 0l428 763h50l-428 -763h-50z" />
    <glyph glyph-name="Euro" unicode="&#x20ac;" horiz-adv-x="607" 
d="M246.5 65.5q-87.5 75.5 -116.5 198.5h-77v58h78l-1 20q-2 26 -2 40q0 15 2 43l1 22h-78v59h80q33 121 119.5 194t220.5 73q34 0 69 -6v-85q-35 8 -69 8q-133 0 -201 -98l-18 -28q-17 -27 -39 -57l9 -11q28 7 46 8.5t40 1.5h201v-59h-293q-3 -31 -3 -65q0 -6 3 -60h293
v-58h-201q-23 0 -41.5 1.5t-47.5 8.5l-8 -11q22 -27 34.5 -48.5t17.5 -29.5q34 -54 86.5 -83.5t121.5 -29.5q27 0 69 6v-83q-53 -5 -69 -5q-139 0 -226.5 75.5z" />
    <glyph glyph-name="uni2116" unicode="&#x2116;" horiz-adv-x="1265" 
d="M872.5 327q-51.5 31 -80 85.5t-28.5 124.5q0 67 28.5 121t80 84.5t116.5 30.5t117 -30.5t81 -84.5t29 -121q0 -69 -29 -124t-80.5 -86t-117.5 -31q-65 0 -116.5 31zM79 763h134l293 -574q24 -46 38 -95l16 3q-4 44 -4 91v575h91v-763h-134l-293 574q-13 26 -21 45t-16 48
l-16 -3q4 -44 4 -92v-572h-92v763zM1067.5 381.5q35.5 23.5 56 64t20.5 91.5q0 48 -20 88t-55.5 63t-79.5 23q-43 0 -78.5 -22.5t-55.5 -62.5t-20 -89q0 -52 20 -92.5t55.5 -63.5t78.5 -23t78.5 23.5zM790 127v64h401v-64h-401z" />
    <glyph glyph-name="trademark" unicode="&#x2122;" horiz-adv-x="634" 
d="M97 458v255h-93v50h244v-50h-94v-255h-57zM290 763h94l53 -196q1 -4 4.5 -17t3.5 -36h6q0 18 2 30t5 23l54 196h94v-305h-56v212q0 22 2 47h-6q-7 -34 -11 -47l-59 -212h-55l-61 212q-6 26 -10 47h-6q2 -25 2 -47v-212h-56v305z" />
    <glyph glyph-name="minus" unicode="&#x2212;" horiz-adv-x="635" 
d="M113 304v71h409v-71h-409z" />
    <glyph glyph-name="lozenge" unicode="&#x25ca;" horiz-adv-x="623" 
d="M247 0l-203 382l203 381h129l203 -382l-203 -381h-129zM312 34l177 349l-177 346l-177 -346z" />
    <glyph glyph-name="uniF8FF" unicode="&#xf8ff;" horiz-adv-x="921" 
d="M79 10v743q0 10 9 10h744q10 0 10 -10v-743q0 -10 -10 -10h-744q-9 0 -9 10zM255 94q11 11 17 22.5t14 31.5q13 36 33 69t67 82l25 26q4 4 8 4t9 -3q7 -4 17 -6q10 -3 10 -13v-36q0 -43 -5.5 -67t-15.5 -47q-10 -20 -10 -37q0 -14 11 -25t25 -11q15 0 26 11t11 25
q0 17 -10 37q-10 23 -15.5 47t-5.5 67v36q0 10 10 13q13 4 15 6q5 3 8 3q5 0 9 -4l26 -26q48 -48 68 -81.5t33 -69.5q6 -19 12 -30.5t18 -23.5q17 -15 40 -15q26 0 41 15q17 17 17 42t-16 40q-12 12 -23.5 18t-30.5 12q-37 13 -70 32.5t-81 67.5l-26 26q-4 4 -4 9q0 3 3 7
q6 12 7 18q3 11 12 11h36q44 0 68.5 -6t46.5 -16q2 -1 13 -5.5t24 -4.5q14 0 25 11t11 26q0 14 -11 25.5t-25 11.5q-13 0 -24 -4.5t-13 -5.5q-22 -10 -46.5 -16t-68.5 -6h-36q-9 0 -12 11q-4 10 -7 15t-3 8q0 4 4 8l26 26q48 48 82 68.5t69 31.5q4 2 16 6.5t21 10t16 13.5
q17 19 17 41q0 24 -17 41q-16 16 -41 16t-40 -15q-11 -11 -17 -22.5t-14 -32.5q-13 -37 -32.5 -70t-67.5 -81l-25 -24q-3 -4 -9 -4q-4 0 -7 2q-5 3 -17 7q-10 3 -10 13v36q0 43 5.5 67t15.5 47q10 20 10 37q0 14 -11 25t-25 11q-15 0 -26 -11t-11 -25q0 -17 10 -37
q10 -23 15.5 -47t5.5 -67v-36q0 -10 -10 -13q-2 -1 -7.5 -2.5t-9.5 -4.5q-3 -2 -7 -2q-6 0 -10 4l-25 24q-49 49 -69.5 83t-31.5 69q-7 19 -13 31t-17 23q-16 16 -40 16q-22 0 -40 -16q-17 -17 -17 -42t16 -41q11 -11 22.5 -17t30.5 -13q36 -13 69 -33t82 -67l26 -25
q4 -4 4 -8q0 -3 -3 -8q-2 -3 -7 -16q-3 -11 -12 -11h-36q-44 0 -68.5 6t-46.5 16q-2 1 -13 5.5t-24 4.5q-14 0 -25 -11.5t-11 -25.5q0 -15 11 -26t25 -11q13 0 24 4.5t13 5.5q22 10 46.5 16t68.5 6h36q9 0 12 -11q5 -12 8 -17q2 -6 2 -7q0 -5 -4 -9l-26 -27
q-48 -49 -81.5 -68.5t-69.5 -31.5q-20 -7 -31.5 -13t-22.5 -17q-16 -15 -16 -40q0 -24 16 -41q16 -16 42 -16q25 0 40 15zM422 343.5q-16 16.5 -16 38.5t16 38t38 16t38 -16t16 -38q0 -23 -16 -39t-38 -16t-38 16.5zM492 354l-6 6q-10 -13 -26 -13q-14 0 -24 10.5t-10 24.5
t10.5 24t23.5 10q16 0 27 -13l5 6q-10 15 -32 15q-17 0 -30 -12.5t-13 -29.5t13 -30t30 -13q22 0 32 15z" />
    <glyph glyph-name="i.loclTRK" horiz-adv-x="227" 
d="M71 0v553h85v-553h-85zM68 666.5q-19 18.5 -19 44.5t19 44t46 18t46 -18t19 -44t-19 -44.5t-46 -18.5t-46 18.5z" />
    <glyph glyph-name="uni030C.alt" 
d="M-89 575q25 29 25 72q0 15 -3 30h-12q-1 -11 -10.5 -16.5t-22.5 -5.5q-22 0 -37 15.5t-15 41.5q0 27 17.5 44t46.5 17q39 0 62.5 -32t23.5 -84q0 -61 -36.5 -108t-109.5 -55v45q46 7 71 36z" />
    <glyph glyph-name="uni0308.case" 
d="M-358.5 827.5q-17.5 16.5 -17.5 40.5t17.5 41t41.5 17q23 0 40.5 -17t17.5 -41q0 -23 -17.5 -40t-40.5 -17q-24 0 -41.5 16.5zM-158.5 827.5q-17.5 16.5 -17.5 40.5t17.5 41t41.5 17q23 0 40.5 -17t17.5 -41q0 -23 -17.5 -40t-40.5 -17q-24 0 -41.5 16.5z" />
    <glyph glyph-name="uni0307.case" 
d="M-158.5 827.5q-17.5 16.5 -17.5 40.5t17.5 41t41.5 17q23 0 40.5 -17t17.5 -41q0 -23 -17.5 -40t-40.5 -17q-24 0 -41.5 16.5z" />
    <glyph glyph-name="uni0328.case" 
d="M-139.5 -195q-28.5 25 -28.5 67q0 37 25 64t79 49v15h50q-10 -10 -26 -24q-37 -34 -50 -51t-13 -40t14 -36.5t39 -13.5q19 0 36 6v-54q-28 -7 -51 -7q-46 0 -74.5 25z" />
    <glyph glyph-name="uni0335.case" 
d="M-485 304v71h409v-71h-409z" />
    <glyph glyph-name="uni0337.case" 
d="M-393 237v69l367 189v-68z" />
    <glyph glyph-name="uni0338.case" 
d="M-654 28l-45 45l663 663l45 -46z" />
    <glyph glyph-name="base_No" horiz-adv-x="481" 
d="M0 0v77h481v-77h-481z" />
    </font>
</defs>
</svg>
